  0
SECTION
  2
HEADER
  9
$ACADVER
  1
AC1015
  9
$ACADMAINTVER
 70
    20
  9
$DWGCODEPAGE
  3
ANSI_932
  9
$INSBASE
 10
0.0
 20
0.0
 30
0.0
  9
$EXTMIN
 10
139.1313095266932
 20
142.4309625872758
 30
0.0
  9
$EXTMAX
 10
428.196753447144
 20
366.8056652342275
 30
0.0
  9
$LIMMIN
 10
0.0
 20
0.0
  9
$LIMMAX
 10
420.0
 20
297.0
  9
$ORTHOMODE
 70
     0
  9
$REGENMODE
 70
     1
  9
$FILLMODE
 70
     1
  9
$QTEXTMODE
 70
     0
  9
$MIRRTEXT
 70
     1
  9
$LTSCALE
 40
1.0
  9
$ATTMODE
 70
     1
  9
$TEXTSIZE
 40
5.0
  9
$TRACEWID
 40
1.0
  9
$TEXTSTYLE
  7
ベン
  9
$CLAYER
  8
00外形線
  9
$CELTYPE
  6
ByLayer
  9
$CECOLOR
 62
   256
  9
$CELTSCALE
 40
1.0
  9
$DISPSILH
 70
     0
  9
$DIMSCALE
 40
1.0
  9
$DIMASZ
 40
2.000000000000001
  9
$DIMEXO
 40
1.0
  9
$DIMDLI
 40
10.0
  9
$DIMRND
 40
0.0
  9
$DIMDLE
 40
0.0
  9
$DIMEXE
 40
1.0
  9
$DIMTP
 40
0.1
  9
$DIMTM
 40
0.1
  9
$DIMTXT
 40
2.7
  9
$DIMCEN
 40
0.0
  9
$DIMTSZ
 40
0.0
  9
$DIMTOL
 70
     0
  9
$DIMLIM
 70
     0
  9
$DIMTIH
 70
     0
  9
$DIMTOH
 70
     0
  9
$DIMSE1
 70
     0
  9
$DIMSE2
 70
     0
  9
$DIMTAD
 70
     3
  9
$DIMZIN
 70
     8
  9
$DIMBLK
  1
Open30
  9
$DIMASO
 70
     1
  9
$DIMSHO
 70
     1
  9
$DIMPOST
  1

  9
$DIMAPOST
  1
"
  9
$DIMALT
 70
     0
  9
$DIMALTD
 70
     2
  9
$DIMALTF
 40
0.0393701
  9
$DIMLFAC
 40
1.0
  9
$DIMTOFL
 70
     1
  9
$DIMTVP
 40
0.0
  9
$DIMTIX
 70
     0
  9
$DIMSOXD
 70
     0
  9
$DIMSAH
 70
     0
  9
$DIMBLK1
  1

  9
$DIMBLK2
  1

  9
$DIMSTYLE
  2
ベン
  9
$DIMCLRD
 70
   256
  9
$DIMCLRE
 70
   256
  9
$DIMCLRT
 70
     2
  9
$DIMTFAC
 40
0.71
  9
$DIMGAP
 40
0.7500000000000002
  9
$DIMJUST
 70
     0
  9
$DIMSD1
 70
     0
  9
$DIMSD2
 70
     0
  9
$DIMTOLJ
 70
     0
  9
$DIMTZIN
 70
     8
  9
$DIMALTZ
 70
     0
  9
$DIMALTTZ
 70
     0
  9
$DIMUPT
 70
     0
  9
$DIMDEC
 70
     2
  9
$DIMTDEC
 70
     2
  9
$DIMALTU
 70
     2
  9
$DIMALTTD
 70
     2
  9
$DIMTXSTY
  7
ベン
  9
$DIMAUNIT
 70
     0
  9
$DIMADEC
 70
     0
  9
$DIMALTRND
 40
0.0
  9
$DIMAZIN
 70
     2
  9
$DIMDSEP
 70
    46
  9
$DIMATFIT
 70
     3
  9
$DIMFRAC
 70
     0
  9
$DIMLDRBLK
  1
Open30
  9
$DIMLUNIT
 70
     2
  9
$DIMLWD
 70
    -1
  9
$DIMLWE
 70
    -1
  9
$DIMTMOVE
 70
     0
  9
$LUNITS
 70
     2
  9
$LUPREC
 70
     2
  9
$SKETCHINC
 40
1.0
  9
$FILLETRAD
 40
2.0
  9
$AUNITS
 70
     0
  9
$AUPREC
 70
     0
  9
$MENU
  1
.
  9
$ELEVATION
 40
0.0
  9
$PELEVATION
 40
0.0
  9
$THICKNESS
 40
0.0
  9
$LIMCHECK
 70
     0
  9
$CHAMFERA
 40
0.5
  9
$CHAMFERB
 40
0.5
  9
$CHAMFERC
 40
20.0
  9
$CHAMFERD
 40
0.0
  9
$SKPOLY
 70
     0
  9
$TDCREATE
 40
2459521.568762291
  9
$TDUCREATE
 40
2459521.193762292
  9
$TDUPDATE
 40
2459753.636704815
  9
$TDUUPDATE
 40
2459753.261704815
  9
$TDINDWG
 40
0.1732479630
  9
$TDUSRTIMER
 40
0.1732479630
  9
$USRTIMER
 70
     1
  9
$ANGBASE
 50
0.0
  9
$ANGDIR
 70
     0
  9
$PDMODE
 70
     0
  9
$PDSIZE
 40
0.0
  9
$PLINEWID
 40
0.0
  9
$SPLFRAME
 70
     0
  9
$SPLINETYPE
 70
     6
  9
$SPLINESEGS
 70
     8
  9
$HANDSEED
  5
1B78
  9
$SURFTAB1
 70
     6
  9
$SURFTAB2
 70
     6
  9
$SURFTYPE
 70
     6
  9
$SURFU
 70
     6
  9
$SURFV
 70
     6
  9
$UCSBASE
  2

  9
$UCSNAME
  2

  9
$UCSORG
 10
0.0
 20
0.0
 30
0.0
  9
$UCSXDIR
 10
1.0
 20
0.0
 30
0.0
  9
$UCSYDIR
 10
0.0
 20
1.0
 30
0.0
  9
$UCSORTHOREF
  2

  9
$UCSORTHOVIEW
 70
     0
  9
$UCSORGTOP
 10
0.0
 20
0.0
 30
0.0
  9
$UCSORGBOTTOM
 10
0.0
 20
0.0
 30
0.0
  9
$UCSORGLEFT
 10
0.0
 20
0.0
 30
0.0
  9
$UCSORGRIGHT
 10
0.0
 20
0.0
 30
0.0
  9
$UCSORGFRONT
 10
0.0
 20
0.0
 30
0.0
  9
$UCSORGBACK
 10
0.0
 20
0.0
 30
0.0
  9
$PUCSBASE
  2

  9
$PUCSNAME
  2

  9
$PUCSORG
 10
0.0
 20
0.0
 30
0.0
  9
$PUCSXDIR
 10
1.0
 20
0.0
 30
0.0
  9
$PUCSYDIR
 10
0.0
 20
1.0
 30
0.0
  9
$PUCSORTHOREF
  2

  9
$PUCSORTHOVIEW
 70
     0
  9
$PUCSORGTOP
 10
0.0
 20
0.0
 30
0.0
  9
$PUCSORGBOTTOM
 10
0.0
 20
0.0
 30
0.0
  9
$PUCSORGLEFT
 10
0.0
 20
0.0
 30
0.0
  9
$PUCSORGRIGHT
 10
0.0
 20
0.0
 30
0.0
  9
$PUCSORGFRONT
 10
0.0
 20
0.0
 30
0.0
  9
$PUCSORGBACK
 10
0.0
 20
0.0
 30
0.0
  9
$USERI1
 70
     0
  9
$USERI2
 70
     0
  9
$USERI3
 70
     0
  9
$USERI4
 70
     0
  9
$USERI5
 70
     0
  9
$USERR1
 40
0.0
  9
$USERR2
 40
0.0
  9
$USERR3
 40
0.0
  9
$USERR4
 40
0.0
  9
$USERR5
 40
0.0
  9
$WORLDVIEW
 70
     1
  9
$SHADEDGE
 70
     3
  9
$SHADEDIF
 70
    70
  9
$TILEMODE
 70
     1
  9
$MAXACTVP
 70
    64
  9
$PINSBASE
 10
0.0
 20
0.0
 30
0.0
  9
$PLIMCHECK
 70
     0
  9
$PEXTMIN
 10
1.000000000000000E+20
 20
1.000000000000000E+20
 30
1.000000000000000E+20
  9
$PEXTMAX
 10
-1.000000000000000E+20
 20
-1.000000000000000E+20
 30
-1.000000000000000E+20
  9
$PLIMMIN
 10
0.0
 20
0.0
  9
$PLIMMAX
 10
420.0
 20
297.0
  9
$UNITMODE
 70
     0
  9
$VISRETAIN
 70
     1
  9
$PLINEGEN
 70
     0
  9
$PSLTSCALE
 70
     1
  9
$TREEDEPTH
 70
  3020
  9
$CMLSTYLE
  2
Standard
  9
$CMLJUST
 70
     0
  9
$CMLSCALE
 40
20.0
  9
$PROXYGRAPHICS
 70
     1
  9
$MEASUREMENT
 70
     1
  9
$CELWEIGHT
370
    -1
  9
$ENDCAPS
280
     0
  9
$JOINSTYLE
280
     0
  9
$LWDISPLAY
290
     0
  9
$INSUNITS
 70
     4
  9
$HYPERLINKBASE
  1

  9
$STYLESHEET
  1
monochrome.ctb
  9
$XEDIT
290
     1
  9
$CEPSNTYPE
380
     0
  9
$PSTYLEMODE
290
     1
  9
$FINGERPRINTGUID
  2
{14F15736-F289-4345-9AE6-D71C13784572}
  9
$VERSIONGUID
  2
{62068717-DEC8-4384-A54B-8E8B1C6074CF}
  9
$EXTNAMES
290
     1
  9
$PSVPSCALE
 40
0.0
  9
$OLESTARTUP
290
     0
  0
ENDSEC
  0
SECTION
  2
CLASSES
  0
CLASS
  1
ACDBDICTIONARYWDFLT
  2
AcDbDictionaryWithDefault
  3
ObjectDBX Classes
 90
        0
280
     0
281
     0
  0
CLASS
  1
ACDBPLACEHOLDER
  2
AcDbPlaceHolder
  3
ObjectDBX Classes
 90
        0
280
     0
281
     0
  0
CLASS
  1
LAYOUT
  2
AcDbLayout
  3
ObjectDBX Classes
 90
        0
280
     0
281
     0
  0
CLASS
  1
AMGSETTINGSOBJ
  2
AmgSettingsObj
  3
"AcadM|Product Description: AutoCAD Mechanical|Company: Autodesk"
 90
        0
280
     0
281
     0
  0
CLASS
  1
ACME_DOCUMENT
  2
AcMeDbDoc
  3
AcMeServices
 90
        0
280
     0
281
     0
  0
CLASS
  1
ACMESCOPE
  2
AcMeScope
  3
AcMeServices
 90
        0
280
     0
281
     0
  0
CLASS
  1
ACMECOMMANDHISTORY
  2
AcMeCommandHistory
  3
AcMeServices
 90
        0
280
     0
281
     0
  0
CLASS
  1
ACIMSYSVARMAN
  2
AcImSysVarManager
  3
AcMeServices
 90
        0
280
     0
281
     0
  0
CLASS
  1
ACIMREALSYSVAR
  2
AcImRealSysVar
  3
AcMeServices
 90
        0
280
     0
281
     0
  0
CLASS
  1
ACIMINTSYSVAR
  2
AcImIntSysVar
  3
AcMeServices
 90
        0
280
     0
281
     0
  0
CLASS
  1
ACMEDRAWINGMAN
  2
AcMeDrawingMan
  3
AcMeServices
 90
        0
280
     0
281
     0
  0
CLASS
  1
ACMEVIEW
  2
AcMeView
  3
AcMeServices
 90
        0
280
     0
281
     0
  0
CLASS
  1
ACDBENTITYCACHE
  2
AcMeEntityCache
  3
AcMeServices
 90
        0
280
     0
281
     0
  0
CLASS
  1
GSMANAGER
  2
AcMeGSManager
  3
AcMeServices
 90
        0
280
     0
281
     0
  0
CLASS
  1
AMDTINTERNALREACTOR
  2
AmdtInternalReactor
  3
AcMeServices
 90
        0
280
     0
281
     0
  0
CLASS
  1
ACMESTATEMGR
  2
AcMeStateMgr
  3
AcMeServices
 90
        0
280
     0
281
     0
  0
CLASS
  1
ACGREFMASTER
  2
AcGrefMaster
  3
AcAttribServices
 90
        0
280
     0
281
     0
  0
CLASS
  1
ACME_DATABASE
  2
AcMeDbDatabase
  3
AcMeServices
 90
        0
280
     0
281
     0
  0
CLASS
  1
ACRFINSADJUSTERMGR
  2
AcRfInsAdjusterMgr
  3
AcMeServices
 90
        0
280
     0
281
     0
  0
CLASS
  1
ACGREFACADMASTER
  2
AcGrefacadMaster
  3
AcGrefServices
 90
        0
280
     0
281
     0
  0
CLASS
  1
AMIMASTER
  2
AmiMaster
  3
AmiServices
 90
        0
280
     0
281
     0
  0
CLASS
  1
ACMDATADICTIONARY
  2
AcmDataDictionary
  3
"AcmSymBB|Product Description: AutoCAD Mechanical|Company: Autodesk"
 90
        0
280
     0
281
     0
  0
CLASS
  1
ACMDATAENTRYBLOCK
  2
AcmDataEntryBlock
  3
"AcmSymBB|Product Description: AutoCAD Mechanical|Company: Autodesk"
 90
        0
280
     0
281
     0
  0
CLASS
  1
ACIMSTRSYSVAR
  2
AcImStrSysVar
  3
AcMeServices
 90
        0
280
     0
281
     0
  0
CLASS
  1
ACMSTANDARDISO
  2
AcmStandardISO
  3
"Amdt_StdImp|Product Description: AutoCAD Mechanical|Company: Autodesk"
 90
        0
280
     0
281
     0
  0
CLASS
  1
AMGOBJPROPCFG
  2
AmgObjPropCfg
  3
"AmgLay|Product Description: AutoCAD Mechanical|Company: Autodesk"
 90
        1
280
     0
281
     0
  0
CLASS
  1
AMDTEDGESTANDARDISO
  2
AmdtEdgeStdISO
  3
"Amdt_StdImp|Product Description: AutoCAD Mechanical|Company: Autodesk"
 90
        0
280
     0
281
     0
  0
CLASS
  1
ACMSURFSTANDARDISO
  2
AcmSurfTextStdISO
  3
"Amdt_StdImp|Product Description: AutoCAD Mechanical|Company: Autodesk"
 90
        0
280
     0
281
     0
  0
CLASS
  1
ACMFCFSTANDARDISO
  2
AcmFCFStdISO
  3
"Amdt_StdImp|Product Description: AutoCAD Mechanical|Company: Autodesk"
 90
        0
280
     0
281
     0
  0
CLASS
  1
ACMWELDSTANDARDISO
  2
AcmWeldingStdISO
  3
"Amdt_StdImp|Product Description: AutoCAD Mechanical|Company: Autodesk"
 90
        0
280
     0
281
     0
  0
CLASS
  1
ACMIDSTANDARDISO
  2
AcmIdStdISO
  3
"Amdt_StdImp|Product Description: AutoCAD Mechanical|Company: Autodesk"
 90
        0
280
     0
281
     0
  0
CLASS
  1
ACMDATUMSTANDARDISO
  2
AcmDatumStdISO
  3
"Amdt_StdImp|Product Description: AutoCAD Mechanical|Company: Autodesk"
 90
        0
280
     0
281
     0
  0
CLASS
  1
ACMBOMSTANDARDISO
  2
AcmBOMStdISO
  3
"Amdt_StdImp|Product Description: AutoCAD Mechanical|Company: Autodesk"
 90
        0
280
     0
281
     0
  0
CLASS
  1
ACMDETAILSTANDARDISO
  2
AmdtDetailSymStdISO
  3
"Amdt_StdImp|Product Description: AutoCAD Mechanical|Company: Autodesk"
 90
        0
280
     0
281
     0
  0
CLASS
  1
ACMSECTIONSTANDARDISO
  2
AmdtSectionSymStdISO
  3
"Amdt_StdImp|Product Description: AutoCAD Mechanical|Company: Autodesk"
 90
        0
280
     0
281
     0
  0
CLASS
  1
ACMCENTERLINESTANDARDISO
  2
AmdtCenterLineStdISO
  3
"Amdt_StdImp|Product Description: AutoCAD Mechanical|Company: Autodesk"
 90
        0
280
     0
281
     0
  0
CLASS
  1
ACMNOTESTANDARDISO
  2
AmdtNoteStdISO
  3
"Amdt_StdImp|Product Description: AutoCAD Mechanical|Company: Autodesk"
 90
        0
280
     0
281
     0
  0
CLASS
  1
ACAMGLAYSTD
  2
AcAmgLayStd
  3
"AmgLay|Product Description: AutoCAD Mechanical|Company: Autodesk"
 90
        0
280
     0
281
     0
  0
CLASS
  1
ACAMGDIMSTD
  2
AcAmgDimStd
  3
"AmgDim|Product Description: AutoCAD Mechanical|Company: Autodesk"
 90
        0
280
     0
281
     0
  0
CLASS
  1
ACAMGHOLECHARTSTDISO
  2
AcAmgHoleChartStdISO
  3
ACMSYMBB_MODULE_NAME
 90
        0
280
     0
281
     0
  0
CLASS
  1
ACAMGTITLESTD
  2
AcAmgTitleStd
  3
"AmgTitle|Product Description: AutoCAD Mechanical|Company: Autodesk"
 90
        0
280
     0
281
     0
  0
CLASS
  1
ACMSTANDARDJIS
  2
AcmStandardJIS
  3
"Amdt_StdImp|Product Description: AutoCAD Mechanical|Company: Autodesk"
 90
        0
280
     0
281
     0
  0
CLASS
  1
ACMSURFSTANDARDJIS
  2
AcmSurfTextStdJIS
  3
"Amdt_StdImp|Product Description: AutoCAD Mechanical|Company: Autodesk"
 90
        0
280
     0
281
     0
  0
CLASS
  1
ACMFCFSTANDARDJIS98
  2
AcmFCFStdJIS98
  3
"Amdt_StdImp|Product Description: AutoCAD Mechanical|Company: Autodesk"
 90
        0
280
     0
281
     0
  0
CLASS
  1
ACMWELDSTANDARDJIS
  2
AcmWeldingStdJIS
  3
"Amdt_StdImp|Product Description: AutoCAD Mechanical|Company: Autodesk"
 90
        0
280
     0
281
     0
  0
CLASS
  1
ACMIDSTANDARDJIS
  2
AcmIdStdJIS
  3
"Amdt_StdImp|Product Description: AutoCAD Mechanical|Company: Autodesk"
 90
        0
280
     0
281
     0
  0
CLASS
  1
ACMDATUMSTANDARDJIS
  2
AcmDatumStdJIS
  3
"Amdt_StdImp|Product Description: AutoCAD Mechanical|Company: Autodesk"
 90
        0
280
     0
281
     0
  0
CLASS
  1
ACMBOMSTANDARDJIS
  2
AcmBOMStdJIS
  3
"Amdt_StdImp|Product Description: AutoCAD Mechanical|Company: Autodesk"
 90
        0
280
     0
281
     0
  0
CLASS
  1
ACMDETAILSTANDARDJIS
  2
AmdtDetailSymStdJIS
  3
"Amdt_StdImp|Product Description: AutoCAD Mechanical|Company: Autodesk"
 90
        0
280
     0
281
     0
  0
CLASS
  1
ACMSECTIONSTANDARDJIS
  2
AmdtSectionSymStdJIS
  3
"Amdt_StdImp|Product Description: AutoCAD Mechanical|Company: Autodesk"
 90
        0
280
     0
281
     0
  0
CLASS
  1
ACMCENTERLINESTANDARDJIS
  2
AmdtCenterLineStdJIS
  3
"Amdt_StdImp|Product Description: AutoCAD Mechanical|Company: Autodesk"
 90
        0
280
     0
281
     0
  0
CLASS
  1
ACMNOTESTANDARDJIS
  2
AmdtNoteStdJIS
  3
"Amdt_StdImp|Product Description: AutoCAD Mechanical|Company: Autodesk"
 90
        0
280
     0
281
     0
  0
CLASS
  1
ACAMGHOLECHARTSTDJIS
  2
AcAmgHoleChartStdJIS
  3
ACMSYMBB_MODULE_NAME
 90
        0
280
     0
281
     0
  0
CLASS
  1
ACAMGFILTERDAT
  2
AcAmgFilterDat
  3
"AcadM|Product Description: AutoCAD Mechanical|Company: Autodesk"
 90
        0
280
     0
281
     0
  0
CLASS
  1
AMDTSECTIONSYM
  2
AmdtSectionSym
  3
"AcmSymBB|Product Description: AutoCAD Mechanical|Company: Autodesk"
 90
    35839
280
     0
281
     1
  0
CLASS
  1
AMDTSECTIONSYMLABEL
  2
AmdtSectionSymLabel
  3
"AcmSymBB|Product Description: AutoCAD Mechanical|Company: Autodesk"
 90
    35839
280
     0
281
     1
  0
CLASS
  1
AMDTNOTE
  2
AmdtNote
  3
"AcmSymBB|Product Description: AutoCAD Mechanical|Company: Autodesk"
 90
    35839
280
     0
281
     1
  0
CLASS
  1
AMDTFORMULAUPDATEDISPATCHER
  2
AmdtFormulaUpdateDispatcher
  3
AcMeServices
 90
        0
280
     0
281
     0
  0
CLASS
  1
LAYER_INDEX
  2
AcDbLayerIndex
  3
ObjectDBX Classes
 90
    32768
280
     0
281
     0
  0
CLASS
  1
IDBUFFER
  2
AcDbIdBuffer
  3
ObjectDBX Classes
 90
    32768
280
     0
281
     0
  0
CLASS
  1
DICTIONARYVAR
  2
AcDbDictionaryVar
  3
ObjectDBX Classes
 90
        0
280
     0
281
     0
  0
CLASS
  1
ACMSTANDARDANSI
  2
AcmStandardANSI
  3
"Amdt_StdImp|Product Description: AutoCAD Mechanical|Company: Autodesk"
 90
        0
280
     0
281
     0
  0
CLASS
  1
ACMSURFSTANDARDANSI
  2
AcmSurfTextStdANSI
  3
"Amdt_StdImp|Product Description: AutoCAD Mechanical|Company: Autodesk"
 90
        0
280
     0
281
     0
  0
CLASS
  1
ACMFCFSTANDARDANSI
  2
AcmFCFStdANSI
  3
"Amdt_StdImp|Product Description: AutoCAD Mechanical|Company: Autodesk"
 90
        0
280
     0
281
     0
  0
CLASS
  1
ACMWELDSTANDARDANSI
  2
AcmWeldingStdANSI
  3
"Amdt_StdImp|Product Description: AutoCAD Mechanical|Company: Autodesk"
 90
        0
280
     0
281
     0
  0
CLASS
  1
ACMIDSTANDARDANSI
  2
AcmIdStdANSI
  3
"Amdt_StdImp|Product Description: AutoCAD Mechanical|Company: Autodesk"
 90
        0
280
     0
281
     0
  0
CLASS
  1
ACMDATUMSTANDARDANSI
  2
AcmDatumStdANSI
  3
"Amdt_StdImp|Product Description: AutoCAD Mechanical|Company: Autodesk"
 90
        0
280
     0
281
     0
  0
CLASS
  1
ACMBOMSTANDARDANSI
  2
AcmBOMStdANSI
  3
"Amdt_StdImp|Product Description: AutoCAD Mechanical|Company: Autodesk"
 90
        0
280
     0
281
     0
  0
CLASS
  1
ACMDETAILSTANDARDANSI
  2
AmdtDetailSymStdANSI
  3
"Amdt_StdImp|Product Description: AutoCAD Mechanical|Company: Autodesk"
 90
        0
280
     0
281
     0
  0
CLASS
  1
ACMSECTIONSTANDARDANSI
  2
AmdtSectionSymStdANSI
  3
"Amdt_StdImp|Product Description: AutoCAD Mechanical|Company: Autodesk"
 90
        0
280
     0
281
     0
  0
CLASS
  1
ACMCENTERLINESTANDARDANSI
  2
AmdtCenterLineStdANSI
  3
"Amdt_StdImp|Product Description: AutoCAD Mechanical|Company: Autodesk"
 90
        0
280
     0
281
     0
  0
CLASS
  1
ACMNOTESTANDARDANSI
  2
AmdtNoteStdANSI
  3
"Amdt_StdImp|Product Description: AutoCAD Mechanical|Company: Autodesk"
 90
        0
280
     0
281
     0
  0
CLASS
  1
ACAMGHOLECHARTSTDANSI
  2
AcAmgHoleChartStdANSI
  3
ACMSYMBB_MODULE_NAME
 90
        0
280
     0
281
     0
  0
CLASS
  1
MATERIAL
  2
AcDbMaterial
  3
ObjectDBX Classes
 90
     1024
280
     0
281
     0
  0
CLASS
  1
VISUALSTYLE
  2
AcDbVisualStyle
  3
ObjectDBX Classes
 90
     4095
280
     0
281
     0
  0
CLASS
  1
TABLESTYLE
  2
AcDbTableStyle
  3
ObjectDBX Classes
 90
     4095
280
     0
281
     0
  0
CLASS
  1
AM_DRAWING_MGR
  2
AcDmDwgMgr
  3
AcMechDwgViewMgmt
 90
        0
280
     0
281
     0
  0
CLASS
  1
AM_DWG_DOCUMENT
  2
AcDmDwgDocument
  3
AcMechDwgViewMgmt
 90
        0
280
     0
281
     0
  0
CLASS
  1
AM_DWG_SHEET
  2
AcDmSheet
  3
AcMechDwgViewMgmt
 90
        0
280
     0
281
     0
  0
CLASS
  1
AM_VIEWDIMPARMAP
  2
AcDmViewDimParMap
  3
AcMechDwgViewMgmt
 90
        0
280
     0
281
     0
  0
CLASS
  1
AM_DWGMGR_NAME
  2
AcDmDwgMgrName
  3
AcMechDwgViewMgmt
 90
        0
280
     0
281
     0
  0
CLASS
  1
AMDTMENUSTATEMGR
  2
AmdtMenuStateMgr
  3
McadcomServices
 90
        0
280
     0
281
     0
  0
CLASS
  1
AMDTMCOMMENUSTATE
  2
AmdtMcomMenuState
  3
McadcomServices
 90
        0
280
     0
281
     0
  0
CLASS
  1
MAPIAMMOUDLE
  2
MApiAmModule
  3
MApiAmServices
 90
        0
280
     0
281
     0
  0
CLASS
  1
AMDTADMENUSTATE
  2
AmdtAdMenuState
  3
DesignerServices
 90
        0
280
     0
281
     0
  0
CLASS
  1
ADAPPL
  2
AcAdAppl
  3
DesignerServices
 90
        0
280
     0
281
     0
  0
CLASS
  1
DEPMGR
  2
AcAdDepMgr
  3
DesignerServices
 90
        0
280
     0
281
     0
  0
CLASS
  1
PARAMMGR
  2
AcAdParamMgr
  3
DesignerServices
 90
        0
280
     0
281
     0
  0
CLASS
  1
PARAMSCOPE
  2
AcAdParamScope
  3
DesignerServices
 90
        0
280
     0
281
     0
  0
CLASS
  1
NAMEDAPPL
  2
AcAdNamedAppl
  3
DesignerServices
 90
        0
280
     0
281
     0
  0
CLASS
  1
AMDTDMMENUSTATE
  2
AmdtDmMenuState
  3
AcMechDwgViewMgmt
 90
        0
280
     0
281
     0
  0
CLASS
  1
AMDTAMMENUSTATE
  2
AmdtAmMenuState
  3
DesignerAssemblies
 90
        0
280
     0
281
     0
  0
CLASS
  1
ACAMPROJECT
  2
AcAmProject
  3
DesignerAssemblies
 90
        0
280
     0
281
     0
  0
CLASS
  1
ACAMGRCOMPDEF
  2
AcAmGrCompDef
  3
DesignerAssemblies
 90
        0
280
     0
281
     0
  0
CLASS
  1
ACCMCONTEXT
  2
AcCmContext
  3
DesignerAssemblies
 90
        0
280
     0
281
     0
  0
CLASS
  1
ACAMCOMPDEF
  2
AcAmCompDef
  3
DesignerAssemblies
 90
        0
280
     0
281
     0
  0
CLASS
  1
ACAMCOMPDEFMGR
  2
AcAmCompDefMgr
  3
DesignerAssemblies
 90
        0
280
     0
281
     0
  0
CLASS
  1
AMCONTEXTMGR
  2
AcAmContextMgr
  3
DesignerAssemblies
 90
        0
280
     0
281
     0
  0
CLASS
  1
ACAMCONTEXTMODELER
  2
AcAmContextModeler
  3
DesignerAssemblies
 90
        0
280
     0
281
     0
  0
CLASS
  1
ACRFATTGENMGR
  2
AcRfAttGeneralMgr
  3
AcAttribServices
 90
        0
280
     0
281
     0
  0
CLASS
  1
ACRFOBJATTMGR
  2
AcRfObjAttGroupMgr
  3
AcAttribServices
 90
        0
280
     0
281
     0
  0
CLASS
  1
ACRFMCADAPIATTHOLDER
  2
AcRfMCADAPIAttHolder
  3
AcAttribServices
 90
        0
280
     0
281
     0
  0
CLASS
  1
AMDTSYSATTR
  2
AmdtSystemAttribute
  3
AcAttribServices
 90
        0
280
     0
281
     0
  0
CLASS
  1
ACMTHREADLINESTANDARDISO
  2
AmdtThreadLineStdISO
  3
"Amdt_StdImp|Product Description: AutoCAD Mechanical|Company: Autodesk"
 90
        0
280
     0
281
     0
  0
CLASS
  1
ACMTAPERSTANDARDISO
  2
AcmTaperStdISO
  3
"Amdt_StdImp|Product Description: AutoCAD Mechanical|Company: Autodesk"
 90
        0
280
     0
281
     0
  0
CLASS
  1
ACMTHREADLINESTANDARDJIS
  2
AmdtThreadLineStdJIS
  3
"Amdt_StdImp|Product Description: AutoCAD Mechanical|Company: Autodesk"
 90
        0
280
     0
281
     0
  0
CLASS
  1
ACMTAPERSTANDARDJIS
  2
AcmTaperStdJIS
  3
"Amdt_StdImp|Product Description: AutoCAD Mechanical|Company: Autodesk"
 90
        0
280
     0
281
     0
  0
CLASS
  1
ACMTHREADLINESTANDARDANSI
  2
AmdtThreadLineStdANSI
  3
"Amdt_StdImp|Product Description: AutoCAD Mechanical|Company: Autodesk"
 90
        0
280
     0
281
     0
  0
CLASS
  1
ACMTAPERSTANDARDANSI
  2
AcmTaperStdANSI
  3
"Amdt_StdImp|Product Description: AutoCAD Mechanical|Company: Autodesk"
 90
        0
280
     0
281
     0
  0
CLASS
  1
CATALOGSTATE
  2
AcAmCatalogState
  3
DesignerAssemblies
 90
        0
280
     0
281
     0
  0
CLASS
  1
ACAMGRCOMPDEFSET
  2
AcAmGrCompDefSet
  3
DesignerAssemblies
 90
        0
280
     0
281
     0
  0
CLASS
  1
AMDTBROWSERDBTAB
  2
AmdtBrowserDbTab
  3
McadcomServices
 90
        0
280
     0
281
     0
  0
CLASS
  1
CBROWSERAPPOBJECT
  2
CBrowserAppObject
  3
McadcomServices
 90
        0
280
     0
281
     0
  0
CLASS
  1
DM_PLACEHOLDER
  2
AcDmSelsetPlaceholder
  3
AcMechDwgViewMgmt
 90
        0
280
     0
281
     0
  0
CLASS
  1
CAMSSTRUCTBTNSTATE
  2
StructBtnState
  3
L"DesignerAssemblies"
 90
        0
280
     0
281
     0
  0
CLASS
  1
SORTENTSTABLE
  2
AcDbSortentsTable
  3
ObjectDBX Classes
 90
        0
280
     0
281
     0
  0
CLASS
  1
DIMASSOC
  2
AcDbDimAssoc
  3
"AcDbDimAssoc|Product Desc:     AcDim ARX App For Dimension|Company:          Autodesk, Inc.|WEB Address:      www.autodesk.com"
 90
        0
280
     0
281
     0
  0
CLASS
  1
EXACXREFPANELOBJECT
  2
ExAcXREFPanelObject
  3
EXAC_ESW
 90
    33793
280
     0
281
     0
  0
CLASS
  1
NPOCOLLECTION
  2
AcDbImpNonPersistentObjectsCollection
  3
ObjectDBX Classes
 90
    33921
280
     0
281
     0
  0
CLASS
  1
SOLID_BACKGROUND
  2
AcDbSolidBackground
  3
SCENEOE
 90
    36863
280
     0
281
     0
  0
ENDSEC
  0
SECTION
  2
TABLES
  0
TABLE
  2
VPORT
  5
8
330
0
100
AcDbSymbolTable
 70
     1
  0
VPORT
  5
7EB
330
8
100
AcDbSymbolTableRecord
100
AcDbViewportTableRecord
  2
*Active
 70
     0
 10
0.0
 20
0.0
 11
1.0
 21
1.0
 12
468.1416205238853
 22
-117.5036475917475
 13
0.0
 23
0.0
 14
2.5
 24
2.5
 15
10.0
 25
10.0
 16
0.0
 26
0.0
 36
472.8616467169125
 17
272.2424165835166
 27
322.0053994032469
 37
0.0
 40
735.4457933075313
 41
1.873239436619718
 42
50.0
 43
0.0
 44
0.0
 50
0.0
 51
0.0
 71
     0
 72
   100
 73
     1
 74
     3
 75
     0
 76
     0
 77
     0
 78
     0
281
     0
 65
     1
110
0.0
120
0.0
130
0.0
111
1.0
121
0.0
131
0.0
112
0.0
122
1.0
132
0.0
 79
     0
146
0.0
  0
ENDTAB
  0
TABLE
  2
LTYPE
  5
5
330
0
100
AcDbSymbolTable
 70
    18
  0
LTYPE
  5
14
330
5
100
AcDbSymbolTableRecord
100
AcDbLinetypeTableRecord
  2
ByBlock
 70
     0
  3

 72
    65
 73
     0
 40
0.0
  0
LTYPE
  5
15
330
5
100
AcDbSymbolTableRecord
100
AcDbLinetypeTableRecord
  2
ByLayer
 70
     0
  3

 72
    65
 73
     0
 40
0.0
  0
LTYPE
  5
16
330
5
100
AcDbSymbolTableRecord
100
AcDbLinetypeTableRecord
  2
Continuous
 70
     0
  3
Solid line
 72
    65
 73
     0
 40
0.0
  0
LTYPE
  5
4D
330
5
100
AcDbSymbolTableRecord
100
AcDbLinetypeTableRecord
  2
AM_ISO02W050
 70
     0
  3
__ __ __ __ __ __ __ __ __ __ __ __ __ __ __
 72
    65
 73
     2
 40
7.5
 49
6.0
 74
     0
 49
-1.5
 74
     0
  0
LTYPE
  5
4E
330
5
100
AcDbSymbolTableRecord
100
AcDbLinetypeTableRecord
  2
AM_ISO08W050
 70
     0
  3
____ . ____ . ____ . ____ . ____ . ____ . ____
 72
    65
 73
     4
 40
18.0
 49
12.0
 74
     0
 49
-1.5
 74
     0
 49
3.0
 74
     0
 49
-1.5
 74
     0
  0
LTYPE
  5
4F
330
5
100
AcDbSymbolTableRecord
100
AcDbLinetypeTableRecord
  2
AM_ISO09W050
 70
     0
  3
_____ . . _____ . . _____ . . ____ .. ____
 72
    65
 73
     6
 40
22.5
 49
12.0
 74
     0
 49
-1.5
 74
     0
 49
3.0
 74
     0
 49
-1.5
 74
     0
 49
3.0
 74
     0
 49
-1.5
 74
     0
  0
LTYPE
  5
50
330
5
100
AcDbSymbolTableRecord
100
AcDbLinetypeTableRecord
  2
Amconstr
 70
     0
  3
_______________________
 72
    65
 73
     2
 40
9999.0
 49
9999.0
 74
     0
 49
0.0
 74
     0
  0
LTYPE
  5
51
330
5
100
AcDbSymbolTableRecord
100
AcDbLinetypeTableRecord
  2
AM_ISO08W050x2
 70
     0
  3
__ . __ . __ . __ . __ . __
 72
    65
 73
     4
 40
9.0
 49
6.0
 74
     0
 49
-0.75
 74
     0
 49
1.5
 74
     0
 49
-0.75
 74
     0
  0
LTYPE
  5
52
330
5
100
AcDbSymbolTableRecord
100
AcDbLinetypeTableRecord
  2
AM_ISO02W050x2
 70
     0
  3
 _ _ _ _ _ _ _ _ _ _ _ _
 72
    65
 73
     2
 40
3.75
 49
3.0
 74
     0
 49
-0.75
 74
     0
  0
LTYPE
  5
55
330
5
100
AcDbSymbolTableRecord
100
AcDbLinetypeTableRecord
  2
Amzigzag
 70
     0
  3
/\/-/\/-/\/-/\/-/\/-/\/
 72
    65
 73
     2
 40
11.0001
 49
0.0001
 74
     4
 75
   135
340
54
 46
0.04
 50
0.0
 44
0.0
 45
0.0
 49
-11.0
 74
     0
  0
LTYPE
  5
63
330
5
100
AcDbSymbolTableRecord
100
AcDbLinetypeTableRecord
  2
ACISOWELD
 70
     0
  3
_ _ _ _ _
 72
    65
 73
     2
 40
2.0
 49
2.0
 74
     0
 49
-1.0
 74
     0
  0
LTYPE
  5
64
330
5
100
AcDbSymbolTableRecord
100
AcDbLinetypeTableRecord
  2
ACISOTGB
 70
     0
  3
__ . . __ . .
 72
    65
 73
     6
 40
9.0
 49
4.0
 74
     0
 49
-1.0
 74
     0
 49
1.0
 74
     0
 49
-1.0
 74
     0
 49
1.0
 74
     0
 49
-1.0
 74
     0
  0
LTYPE
  5
65
330
5
100
AcDbSymbolTableRecord
100
AcDbLinetypeTableRecord
  2
ACISOTGL
 70
     0
  3
_ _ _ _ _
 72
    65
 73
     2
 40
3.0
 49
2.0
 74
     0
 49
-1.0
 74
     0
  0
LTYPE
  5
68
330
5
100
AcDbSymbolTableRecord
100
AcDbLinetypeTableRecord
  2
CENTER
 70
     0
  3
__ . __
 72
    65
 73
     4
 40
7.0
 49
4.0
 74
     0
 49
-1.0
 74
     0
 49
1.0
 74
     0
 49
-1.0
 74
     0
  0
LTYPE
  5
8C
330
5
100
AcDbSymbolTableRecord
100
AcDbLinetypeTableRecord
  2
ACJISTGB
 70
     0
  3
__ . . __ . .
 72
    65
 73
     6
 40
9.0
 49
4.0
 74
     0
 49
-1.0
 74
     0
 49
1.0
 74
     0
 49
-1.0
 74
     0
 49
1.0
 74
     0
 49
-1.0
 74
     0
  0
LTYPE
  5
8D
330
5
100
AcDbSymbolTableRecord
100
AcDbLinetypeTableRecord
  2
ACJISTGL
 70
     0
  3
_ _ _ _ _
 72
    65
 73
     2
 40
3.0
 49
2.0
 74
     0
 49
-1.0
 74
     0
  0
LTYPE
  5
1E3
330
5
100
AcDbSymbolTableRecord
100
AcDbLinetypeTableRecord
  2
PHANTOM2
 70
     0
  3
Phantom (.5x) ___ _ _ ___ _ _ ___ _ _ ___ _ _
 72
    65
 73
     6
 40
1.25
 49
0.625
 74
     0
 49
-0.125
 74
     0
 49
0.125
 74
     0
 49
-0.125
 74
     0
 49
0.125
 74
     0
 49
-0.125
 74
     0
  0
LTYPE
  5
1E6
330
5
100
AcDbSymbolTableRecord
100
AcDbLinetypeTableRecord
  2
ACANSTGB
 70
     0
  3
__ . . __ . .
 72
    65
 73
     6
 40
0.35433070866
 49
0.15748031496
 74
     0
 49
-0.03937007874
 74
     0
 49
0.03937007874
 74
     0
 49
-0.03937007874
 74
     0
 49
0.03937007874
 74
     0
 49
-0.03937007874
 74
     0
  0
LTYPE
  5
1E7
330
5
100
AcDbSymbolTableRecord
100
AcDbLinetypeTableRecord
  2
ACANSTGL
 70
     0
  3
_ _ _ _ _
 72
    65
 73
     2
 40
0.11811023622
 49
0.07874015748
 74
     0
 49
-0.03937007874
 74
     0
  0
LTYPE
  5
834
330
5
100
AcDbSymbolTableRecord
100
AcDbLinetypeTableRecord
  2
HIDDEN
 70
     0
  3
Hidden __ __ __ __ __ __ __ __ __ __ __ __ __ _
 72
    65
 73
     2
 40
9.524999999999998
 49
6.349999999999999
 74
     0
 49
-3.174999999999999
 74
     0
  0
ENDTAB
  0
TABLE
  2
LAYER
  5
2
102
{ACAD_XDICTIONARY
360
96B
102
}
330
0
100
AcDbSymbolTable
 70
    12
  0
LAYER
  5
10
330
2
100
AcDbSymbolTableRecord
100
AcDbLayerTableRecord
  2
0
 70
     0
 62
     7
  6
Continuous
370
    -3
390
F
  0
LAYER
  5
169
330
2
100
AcDbSymbolTableRecord
100
AcDbLayerTableRecord
  2
00外形線
 70
     0
 62
     7
  6
Continuous
370
    40
390
F
  0
LAYER
  5
622
330
2
100
AcDbSymbolTableRecord
100
AcDbLayerTableRecord
  2
01細線
 70
     0
 62
   124
  6
Continuous
370
    18
390
F
  0
LAYER
  5
623
330
2
100
AcDbSymbolTableRecord
100
AcDbLayerTableRecord
  2
02極細線
 70
     0
 62
   150
  6
Continuous
370
     9
390
F
  0
LAYER
  5
624
330
2
100
AcDbSymbolTableRecord
100
AcDbLayerTableRecord
  2
03隠れ線
 70
     0
 62
     6
  6
AM_ISO02W050
370
    18
390
F
  0
LAYER
  5
625
330
2
100
AcDbSymbolTableRecord
100
AcDbLayerTableRecord
  2
06文字
 70
     0
 62
     2
  6
Continuous
370
    18
390
F
  0
LAYER
  5
626
330
2
100
AcDbSymbolTableRecord
100
AcDbLayerTableRecord
  2
07中心線
 70
     0
 62
     4
  6
AM_ISO08W050
370
    18
390
F
  0
LAYER
  5
627
330
2
100
AcDbSymbolTableRecord
100
AcDbLayerTableRecord
  2
10切断線
 70
     0
 62
     7
  6
AM_ISO08W050
370
    50
390
F
  0
LAYER
  5
628
330
2
100
AcDbSymbolTableRecord
100
AcDbLayerTableRecord
  2
11想像線
 70
     0
 62
    52
  6
AM_ISO09W050
370
    18
390
F
  0
LAYER
  5
707
330
2
100
AcDbSymbolTableRecord
100
AcDbLayerTableRecord
  2
05寸法線
 70
     0
 62
     3
  6
Continuous
370
    18
390
F
  0
LAYER
  5
985
330
2
100
AcDbSymbolTableRecord
100
AcDbLayerTableRecord
  2
AM_CL
 70
     0
 62
     1
  6
Amconstr
370
     9
390
F
1001
AcAecLayerStandard
1000

1000

  0
LAYER
  5
A1B
330
2
100
AcDbSymbolTableRecord
100
AcDbLayerTableRecord
  2
Defpoints
 70
     0
 62
     7
  6
Continuous
290
     0
370
    -3
390
F
  0
ENDTAB
  0
TABLE
  2
STYLE
  5
3
330
0
100
AcDbSymbolTable
 70
    10
  0
STYLE
  5
11
330
3
100
AcDbSymbolTableRecord
100
AcDbTextStyleTableRecord
  2
STANDARD
 70
     0
 40
0.0
 41
1.0
 50
0.0
 71
     0
 42
2.5
  3
ISOCP.SHX
  4
EXTFONT.SHX
  0
STYLE
  5
54
330
3
100
AcDbSymbolTableRecord
100
AcDbTextStyleTableRecord
  2

 70
     1
 40
0.0
 41
1.0
 50
0.0
 71
     0
 42
2.5
  3
ltypeshp.shx
  4

  0
STYLE
  5
56
330
3
100
AcDbSymbolTableRecord
100
AcDbTextStyleTableRecord
  2
ACISOTS
 70
     0
 40
1.0
 41
1.0
 50
0.0
 71
     0
 42
2.5
  3
isocp.shx
  4
extfont.shx
  0
STYLE
  5
62
330
3
100
AcDbSymbolTableRecord
100
AcDbTextStyleTableRecord
  2
ACISOGDT
 70
     0
 40
0.0
 41
1.0
 50
0.0
 71
     0
 42
2.5
  3
amgdt.shx
  4

  0
STYLE
  5
80
330
3
100
AcDbSymbolTableRecord
100
AcDbTextStyleTableRecord
  2
ACJISTS
 70
     0
 40
1.0
 41
1.0
 50
0.0
 71
     0
 42
2.5
  3
isocp.shx
  4
extfont.shx
  0
STYLE
  5
8B
330
3
100
AcDbSymbolTableRecord
100
AcDbTextStyleTableRecord
  2
ACJISGDT
 70
     0
 40
0.0
 41
1.0
 50
0.0
 71
     0
 42
2.5
  3
amgdt.shx
  4

  0
STYLE
  5
109
330
3
100
AcDbSymbolTableRecord
100
AcDbTextStyleTableRecord
  2
ベン
 70
     0
 40
0.0
 41
0.9
 50
0.0
 71
     0
 42
5.0
  3
ISOCP.SHX
  4
bigfont.shx
  0
STYLE
  5
1E9
330
3
100
AcDbSymbolTableRecord
100
AcDbTextStyleTableRecord
  2
ACANSTS
 70
     0
 40
1.0
 41
1.0
 50
0.0
 71
     0
 42
0.2
  3
romans.shx
  4
extfont.shx
  0
STYLE
  5
1EA
330
3
100
AcDbSymbolTableRecord
100
AcDbTextStyleTableRecord
  2
ACANSGDT
 70
     0
 40
0.0
 41
1.0
 50
0.0
 71
     0
 42
0.2
  3
amgdtans.shx
  4

  0
STYLE
  5
CFD
330
3
100
AcDbSymbolTableRecord
100
AcDbTextStyleTableRecord
  2

 70
     1
 40
0.0
 41
1.0
 50
0.0
 71
     0
 42
0.2
  3
genltshp.shx
  4

  0
ENDTAB
  0
TABLE
  2
VIEW
  5
6
330
0
100
AcDbSymbolTable
 70
     6
  0
VIEW
  5
341
330
6
100
AcDbSymbolTableRecord
100
AcDbViewTableRecord
  2
AM_VIEW1
 70
     0
 40
148.5
 10
149.5687865888295
 20
241.941156416444
 41
229.8079847908746
 11
0.0
 21
0.0
 31
1.0
 12
0.0
 22
0.0
 32
0.0
 42
50.0
 43
0.0
 44
0.0
 50
0.0
 71
    16
281
     0
 72
     0
  0
VIEW
  5
342
330
6
100
AcDbSymbolTableRecord
100
AcDbViewTableRecord
  2
AM_VIEW2
 70
     0
 40
148.5
 10
339.7608017979549
 20
241.941156416444
 41
229.8079847908746
 11
0.0
 21
0.0
 31
1.0
 12
0.0
 22
0.0
 32
0.0
 42
50.0
 43
0.0
 44
0.0
 50
0.0
 71
    16
281
     0
 72
     0
  0
VIEW
  5
343
330
6
100
AcDbSymbolTableRecord
100
AcDbViewTableRecord
  2
AM_VIEW3
 70
     0
 40
148.5
 10
149.5687865888295
 20
93.44115641644398
 41
229.8079847908746
 11
0.0
 21
0.0
 31
1.0
 12
0.0
 22
0.0
 32
0.0
 42
50.0
 43
0.0
 44
0.0
 50
0.0
 71
    16
281
     0
 72
     0
  0
VIEW
  5
344
330
6
100
AcDbSymbolTableRecord
100
AcDbViewTableRecord
  2
AM_VIEW4
 70
     0
 40
148.5
 10
339.7608017979549
 20
93.44115641644398
 41
229.8079847908746
 11
0.0
 21
0.0
 31
1.0
 12
0.0
 22
0.0
 32
0.0
 42
50.0
 43
0.0
 44
0.0
 50
0.0
 71
    16
281
     0
 72
     0
  0
VIEW
  5
345
330
6
100
AcDbSymbolTableRecord
100
AcDbViewTableRecord
  2
AM_VIEW5
 70
     0
 40
148.5
 10
244.6647941933922
 20
167.691156416444
 41
229.8079847908746
 11
0.0
 21
0.0
 31
1.0
 12
0.0
 22
0.0
 32
0.0
 42
50.0
 43
0.0
 44
0.0
 50
0.0
 71
    16
281
     0
 72
     0
  0
VIEW
  5
346
330
6
100
AcDbSymbolTableRecord
100
AcDbViewTableRecord
  2
AM_VIEW6
 70
     0
 40
296.99703
 10
244.6647941933922
 20
167.691156416444
 41
459.6113734220534
 11
0.0
 21
0.0
 31
1.0
 12
0.0
 22
0.0
 32
0.0
 42
50.0
 43
0.0
 44
0.0
 50
0.0
 71
    16
281
     0
 72
     0
  0
ENDTAB
  0
TABLE
  2
UCS
  5
7
330
0
100
AcDbSymbolTable
 70
     0
  0
ENDTAB
  0
TABLE
  2
APPID
  5
9
330
0
100
AcDbSymbolTable
 70
    34
  0
APPID
  5
12
330
9
100
AcDbSymbolTableRecord
100
AcDbRegAppTableRecord
  2
ACAD
 70
     0
  0
APPID
  5
30
330
9
100
AcDbSymbolTableRecord
100
AcDbRegAppTableRecord
  2
MCAD_NO_VIS
 70
     0
  0
APPID
  5
31
330
9
100
AcDbSymbolTableRecord
100
AcDbRegAppTableRecord
  2
ACAD_TEMP_GRAPHIC
 70
     0
  0
APPID
  5
42
330
9
100
AcDbSymbolTableRecord
100
AcDbRegAppTableRecord
  2
ACATTRIBSERVICES
 70
     0
  0
APPID
  5
177
330
9
100
AcDbSymbolTableRecord
100
AcDbRegAppTableRecord
  2
DCO15
 70
     0
  0
APPID
  5
1F2
330
9
100
AcDbSymbolTableRecord
100
AcDbRegAppTableRecord
  2
GENIUS_GENOBJ-N-CEN_13
 70
     0
  0
APPID
  5
1F3
330
9
100
AcDbSymbolTableRecord
100
AcDbRegAppTableRecord
  2
GENIUS_GENODEF_13
 70
     0
  0
APPID
  5
1F4
330
9
100
AcDbSymbolTableRecord
100
AcDbRegAppTableRecord
  2
GENIUS_GENOLIS_13
 70
     0
  0
APPID
  5
1F5
330
9
100
AcDbSymbolTableRecord
100
AcDbRegAppTableRecord
  2
GENIUS_GENOENT_13
 70
     0
  0
APPID
  5
1F6
330
9
100
AcDbSymbolTableRecord
100
AcDbRegAppTableRecord
  2
GENIUS_GENOBJ-N-CRS_13
 70
     0
  0
APPID
  5
1F7
330
9
100
AcDbSymbolTableRecord
100
AcDbRegAppTableRecord
  2
GENIUS_GENOREF_13
 70
     0
  0
APPID
  5
227
330
9
100
AcDbSymbolTableRecord
100
AcDbRegAppTableRecord
  2
GENIUS_GENBLLY_14
 70
     0
  0
APPID
  5
228
330
9
100
AcDbSymbolTableRecord
100
AcDbRegAppTableRecord
  2
GENIUS_GENOBJ-N-HTC_13
 70
     0
  0
APPID
  5
229
330
9
100
AcDbSymbolTableRecord
100
AcDbRegAppTableRecord
  2
GENIUS_GENHATCH_13
 70
     0
  0
APPID
  5
33F
330
9
100
AcDbSymbolTableRecord
100
AcDbRegAppTableRecord
  2
GENIUS_GENOBJ-N-TIT_13
 70
     0
  0
APPID
  5
340
330
9
100
AcDbSymbolTableRecord
100
AcDbRegAppTableRecord
  2
GENIUS_GENTITLE_13
 70
     0
  0
APPID
  5
347
330
9
100
AcDbSymbolTableRecord
100
AcDbRegAppTableRecord
  2
GENIUS_GENSCREG_15
 70
     0
  0
APPID
  5
348
330
9
100
AcDbSymbolTableRecord
100
AcDbRegAppTableRecord
  2
GENIUS_GENOBJ-N-SDF_13
 70
     0
  0
APPID
  5
836
330
9
100
AcDbSymbolTableRecord
100
AcDbRegAppTableRecord
  2
AD_DRAW
 70
     0
  0
APPID
  5
855
330
9
100
AcDbSymbolTableRecord
100
AcDbRegAppTableRecord
  2
DESIGNERASSEMBLIES
 70
     0
  0
APPID
  5
866
330
9
100
AcDbSymbolTableRecord
100
AcDbRegAppTableRecord
  2
ACADM_DIM_EDIT
 70
     0
  0
APPID
  5
867
330
9
100
AcDbSymbolTableRecord
100
AcDbRegAppTableRecord
  2
AMDT_DM_ADJ
 70
     0
  0
APPID
  5
875
330
9
100
AcDbSymbolTableRecord
100
AcDbRegAppTableRecord
  2
ACAD_PSEXT
 70
     0
  0
APPID
  5
964
330
9
100
AcDbSymbolTableRecord
100
AcDbRegAppTableRecord
  2
ACAD_NAV_VCDISPLAY
 70
     0
  0
APPID
  5
965
330
9
100
AcDbSymbolTableRecord
100
AcDbRegAppTableRecord
  2
GENIUS_GENOBJ-N-FIL_13
 70
     0
  0
APPID
  5
966
330
9
100
AcDbSymbolTableRecord
100
AcDbRegAppTableRecord
  2
GENIUS_GENCEN_19
 70
     0
  0
APPID
  5
967
330
9
100
AcDbSymbolTableRecord
100
AcDbRegAppTableRecord
  2
GENIUS_GENFIL_13
 70
     0
  0
APPID
  5
986
330
9
100
AcDbSymbolTableRecord
100
AcDbRegAppTableRecord
  2
AcAecLayerStandard
 70
     0
  0
APPID
  5
A1C
330
9
100
AcDbSymbolTableRecord
100
AcDbRegAppTableRecord
  2
GENIUS_GENDTOL_13
 70
     0
  0
APPID
  5
A1D
330
9
100
AcDbSymbolTableRecord
100
AcDbRegAppTableRecord
  2
ACAD_DSTYLE_DIMINSPECT
 70
     0
  0
APPID
  5
E3B
330
9
100
AcDbSymbolTableRecord
100
AcDbRegAppTableRecord
  2
ACAD_EXEMPT_FROM_CAD_STANDARDS
 70
     0
  0
APPID
  5
111B
330
9
100
AcDbSymbolTableRecord
100
AcDbRegAppTableRecord
  2
GENIUS_GENDIMSH_14
 70
     0
  0
APPID
  5
1806
330
9
100
AcDbSymbolTableRecord
100
AcDbRegAppTableRecord
  2
GENIUS_GENOBJ-N-CHA_13
 70
     0
  0
APPID
  5
1B22
330
9
100
AcDbSymbolTableRecord
100
AcDbRegAppTableRecord
  2
GENIUS_GE3MANIP_13
 70
     0
  0
ENDTAB
  0
TABLE
  2
DIMSTYLE
  5
A
330
0
100
AcDbSymbolTable
 70
    30
100
AcDbDimStyleTable
 71
     2
340
90
340
6B
  0
DIMSTYLE
105
6B
330
A
100
AcDbSymbolTableRecord
100
AcDbDimStyleTableRecord
  2
AM_ISO
 70
     0
  4
"
 41
2.5
 42
1.0
 43
10.0
 44
1.0
 47
0.1
 48
0.1
 73
     0
 74
     0
 77
     1
 78
     8
 79
     2
140
3.5
141
0.0
143
0.0393701
146
0.71
147
1.5
172
     1
176
   256
177
   256
178
     2
271
     2
272
     3
274
     4
283
     0
284
     8
340
11
371
    -1
372
    -1
  0
DIMSTYLE
105
6C
330
A
100
AcDbSymbolTableRecord
100
AcDbDimStyleTableRecord
  2
AM_ISO$3
 70
     0
  4
"
 41
2.5
 42
1.0
 43
10.0
 44
1.0
 47
0.1
 48
0.1
 73
     0
 77
     1
 78
     8
 79
     2
140
3.5
141
0.0
143
0.0393701
146
0.71
147
1.5
176
   256
177
   256
178
     2
271
     2
272
     3
274
     4
283
     0
284
     8
288
     1
289
     0
340
11
371
    -1
372
    -1
  0
DIMSTYLE
105
6D
330
A
100
AcDbSymbolTableRecord
100
AcDbDimStyleTableRecord
  2
AM_ISO$4
 70
     0
  4
"
 41
2.5
 42
1.0
 43
10.0
 44
1.0
 47
0.1
 48
0.1
 73
     0
 77
     1
 78
     8
 79
     2
140
3.5
141
0.0
143
0.0393701
146
0.71
147
1.5
176
   256
177
   256
178
     2
271
     2
272
     3
274
     4
283
     0
284
     8
288
     1
289
     0
340
11
371
    -1
372
    -1
  0
DIMSTYLE
105
6E
330
A
100
AcDbSymbolTableRecord
100
AcDbDimStyleTableRecord
  2
AM_ISO$6
 70
     0
  4
"
 41
2.5
 42
1.0
 43
10.0
 44
1.0
 47
0.1
 48
0.1
 73
     0
 74
     0
 78
     8
 79
     2
140
3.5
141
0.0
143
0.0393701
146
0.71
147
1.5
172
     1
176
   256
177
   256
178
     2
271
     2
272
     3
274
     4
283
     0
284
     8
340
11
371
    -1
372
    -1
  0
DIMSTYLE
105
6F
330
A
100
AcDbSymbolTableRecord
100
AcDbDimStyleTableRecord
  2
AM_ISO$7
 70
     0
  4
"
 41
2.5
 42
1.0
 43
10.0
 44
1.0
 47
0.1
 48
0.1
 73
     0
 74
     0
 77
     1
 78
     8
 79
     2
140
5.0
141
0.0
143
0.0393701
146
0.71
147
1.5
172
     1
176
   256
177
   256
178
     2
271
     2
272
     3
274
     4
283
     0
284
     8
340
11
371
    -1
372
    -1
  0
DIMSTYLE
105
70
330
A
100
AcDbSymbolTableRecord
100
AcDbDimStyleTableRecord
  2
AM_ISO$SF
 70
     0
  4
"
 41
2.5
 42
1.0
 43
10.0
 44
1.0
 47
0.1
 48
0.1
 73
     0
 74
     0
 75
     1
 76
     1
 77
     1
 78
     8
 79
     2
140
3.5
141
0.0
143
0.0393701
146
0.71
147
1.5
172
     1
176
   256
177
   256
178
     2
271
     2
272
     3
274
     4
283
     0
284
     8
340
11
371
    -1
372
    -1
  0
DIMSTYLE
105
75
330
A
100
AcDbSymbolTableRecord
100
AcDbDimStyleTableRecord
  2
AM_ISO$SH
 70
     0
  4
"
 41
2.5
 42
1.0
 43
10.0
 44
1.0
 47
0.1
 48
0.1
 73
     0
 74
     0
 75
     1
 76
     1
 77
     1
 78
     8
 79
     2
140
3.5
141
0.0
143
0.0393701
144
2.0
146
0.71
147
1.5
172
     1
173
     1
176
   256
177
   256
178
     2
271
     2
272
     3
274
     4
283
     0
284
     8
340
11
343
71
371
    -1
372
    -1
  0
DIMSTYLE
105
90
330
A
100
AcDbSymbolTableRecord
100
AcDbDimStyleTableRecord
  2
ベン
 70
     0
  4
"
 41
2.000000000000001
 42
1.0
 43
10.0
 44
1.0
 47
0.1
 48
0.1
 73
     0
 74
     0
 77
     3
 78
     8
 79
     2
140
2.7
141
0.0
143
0.0393701
146
0.71
147
0.7500000000000002
172
     1
176
   256
177
   256
178
     2
271
     2
272
     2
283
     0
284
     8
340
109
341
91
342
91
371
    -1
372
    -1
  0
DIMSTYLE
105
97
330
A
100
AcDbSymbolTableRecord
100
AcDbDimStyleTableRecord
  2
ベン$3
 70
     0
  4
"
 41
2.0
 42
1.0
 43
10.0
 44
1.0
 47
0.1
 48
0.1
 73
     0
 77
     3
 78
     8
 79
     2
140
2.7
141
0.0
143
0.0393701
146
0.71
147
0.7500000000000002
176
   256
177
   256
178
     2
271
     2
272
     2
283
     0
284
     8
288
     1
289
     0
340
109
341
91
342
91
371
    -1
372
    -1
  0
DIMSTYLE
105
98
330
A
100
AcDbSymbolTableRecord
100
AcDbDimStyleTableRecord
  2
ベン$4
 70
     0
  4
"
 41
2.0
 42
1.0
 43
10.0
 44
1.0
 47
0.1
 48
0.1
 73
     0
 77
     3
 78
     8
 79
     2
140
2.7
141
0.0
143
0.0393701
146
0.71
147
0.7500000000000002
176
   256
177
   256
178
     2
271
     2
272
     2
283
     0
284
     8
288
     1
289
     0
340
109
341
91
342
91
371
    -1
372
    -1
  0
DIMSTYLE
105
99
330
A
100
AcDbSymbolTableRecord
100
AcDbDimStyleTableRecord
  2
ベン$6
 70
     0
  4
"
 41
2.0
 42
1.0
 43
10.0
 44
1.0
 47
0.1
 48
0.1
 73
     0
 74
     0
 78
     8
 79
     2
140
2.7
141
0.0
143
0.0393701
146
0.71
147
0.7500000000000002
172
     1
176
   256
177
   256
178
     2
271
     2
272
     2
283
     0
284
     8
340
109
341
91
342
91
371
    -1
372
    -1
  0
DIMSTYLE
105
9A
330
A
100
AcDbSymbolTableRecord
100
AcDbDimStyleTableRecord
  2
ベン$7
 70
     0
  4
"
 41
2.0
 42
1.0
 43
10.0
 44
1.0
 47
0.1
 48
0.1
 73
     0
 74
     0
 77
     3
 78
     8
 79
     2
140
2.7
141
0.0
143
0.0393701
146
0.71
147
0.7500000000000002
172
     1
176
   256
177
   256
178
     2
271
     2
272
     2
283
     0
284
     8
340
109
341
91
342
91
371
    -1
372
    -1
  0
DIMSTYLE
105
9B
330
A
100
AcDbSymbolTableRecord
100
AcDbDimStyleTableRecord
  2
ベン$SF
 70
     0
  4
"
 41
2.0
 42
1.0
 43
10.0
 44
1.0
 47
0.1
 48
0.1
 73
     0
 74
     0
 75
     1
 76
     1
 77
     3
 78
     8
 79
     2
140
2.7
141
0.0
143
0.0393701
146
0.71
147
0.7500000000000002
172
     1
176
   256
177
   256
178
     2
271
     2
272
     2
283
     0
284
     8
340
109
341
91
342
91
371
    -1
372
    -1
  0
DIMSTYLE
105
9C
330
A
100
AcDbSymbolTableRecord
100
AcDbDimStyleTableRecord
  2
ベン$SH
 70
     0
  4
"
 41
2.0
 42
1.0
 43
10.0
 44
1.0
 47
0.1
 48
0.1
 73
     0
 74
     0
 75
     1
 76
     1
 77
     3
 78
     8
 79
     2
140
2.7
141
0.0
143
0.0393701
144
2.0
146
0.71
147
0.7500000000000002
172
     1
173
     1
176
   256
177
   256
178
     2
271
     2
272
     2
283
     0
284
     8
340
109
341
91
343
71
344
91
371
    -1
372
    -1
  0
DIMSTYLE
105
1EB
330
A
100
AcDbSymbolTableRecord
100
AcDbDimStyleTableRecord
  2
STANDARD
 70
     0
289
     0
340
11
  0
DIMSTYLE
105
1EC
330
A
100
AcDbSymbolTableRecord
100
AcDbDimStyleTableRecord
  2
AM_ANSI
 70
     0
  4
mm
 41
0.1
 42
0.05
 43
0.5
 44
0.1
 47
0.1
 48
0.1
 78
     7
 79
     2
140
0.12
141
0.0
146
0.71
147
0.06
176
   256
177
   256
178
     2
274
     4
284
     7
340
11
371
    -1
372
    -1
  0
DIMSTYLE
105
1ED
330
A
100
AcDbSymbolTableRecord
100
AcDbDimStyleTableRecord
  2
AM_ANSI$3
 70
     0
  4
mm
 41
0.1
 42
0.05
 43
0.5
 44
0.1
 47
0.1
 48
0.1
 78
     7
 79
     2
140
0.12
141
0.0
146
0.71
147
0.06
176
   256
177
   256
178
     2
274
     4
284
     7
288
     1
289
     0
340
11
371
    -1
372
    -1
  0
DIMSTYLE
105
1EE
330
A
100
AcDbSymbolTableRecord
100
AcDbDimStyleTableRecord
  2
AM_ANSI$4
 70
     0
  4
mm
 41
0.1
 42
0.05
 43
0.5
 44
0.1
 47
0.1
 48
0.1
 78
     7
 79
     2
140
0.12
141
0.0
146
0.71
147
0.06
176
   256
177
   256
178
     2
274
     4
284
     7
288
     1
289
     0
340
11
371
    -1
372
    -1
  0
DIMSTYLE
105
1EF
330
A
100
AcDbSymbolTableRecord
100
AcDbDimStyleTableRecord
  2
AM_ANSI$7
 70
     0
  4
mm
 41
0.1
 42
0.05
 43
0.5
 44
0.1
 47
0.1
 48
0.1
 78
     7
 79
     2
140
0.24
141
0.0
146
0.71
147
0.06
176
   256
177
   256
178
     2
274
     4
284
     7
340
11
371
    -1
372
    -1
  0
DIMSTYLE
105
1F0
330
A
100
AcDbSymbolTableRecord
100
AcDbDimStyleTableRecord
  2
AM_ANSI$SF
 70
     0
  4
mm
 41
0.1
 42
0.05
 43
0.5
 44
0.1
 47
0.1
 48
0.1
 75
     1
 76
     1
 78
     7
 79
     2
140
0.12
141
0.0
146
0.71
147
0.06
176
   256
177
   256
178
     2
274
     4
284
     7
340
11
371
    -1
372
    -1
  0
DIMSTYLE
105
1F1
330
A
100
AcDbSymbolTableRecord
100
AcDbDimStyleTableRecord
  2
AM_ANSI$SH
 70
     0
  4
mm
 41
0.1
 42
0.05
 43
0.5
 44
0.1
 47
0.1
 48
0.1
 75
     1
 76
     1
 78
     7
 79
     2
140
0.12
141
0.0
146
0.71
147
0.06
173
     1
176
   256
177
   256
178
     2
274
     4
284
     7
340
11
343
71
371
    -1
372
    -1
  0
DIMSTYLE
105
220
330
A
100
AcDbSymbolTableRecord
100
AcDbDimStyleTableRecord
  2
AM_JIS
 70
     0
  4
"
 41
2.5
 42
1.0
 43
10.0
 44
1.0
 47
0.1
 48
0.1
 73
     0
 74
     0
 77
     3
 78
     8
 79
     2
140
3.5
141
0.0
143
0.0393701
146
0.71
147
1.5
172
     1
176
   256
177
   256
178
     2
271
     2
272
     3
274
     4
283
     0
284
     8
340
11
341
91
342
91
343
91
344
91
371
    -1
372
    -1
  0
DIMSTYLE
105
221
330
A
100
AcDbSymbolTableRecord
100
AcDbDimStyleTableRecord
  2
AM_JIS$3
 70
     0
  4
"
 41
2.5
 42
1.0
 43
10.0
 44
1.0
 47
0.1
 48
0.1
 73
     0
 77
     3
 78
     8
 79
     2
140
3.5
141
0.0
143
0.0393701
146
0.71
147
1.5
176
   256
177
   256
178
     2
271
     2
272
     3
274
     4
283
     0
284
     8
288
     1
289
     0
340
11
341
91
342
91
343
91
344
91
371
    -1
372
    -1
  0
DIMSTYLE
105
222
330
A
100
AcDbSymbolTableRecord
100
AcDbDimStyleTableRecord
  2
AM_JIS$4
 70
     0
  4
"
 41
2.5
 42
1.0
 43
10.0
 44
1.0
 47
0.1
 48
0.1
 73
     0
 77
     3
 78
     8
 79
     2
140
3.5
141
0.0
143
0.0393701
146
0.71
147
1.5
176
   256
177
   256
178
     2
271
     2
272
     3
274
     4
283
     0
284
     8
288
     1
289
     0
340
11
341
91
342
91
343
91
344
91
371
    -1
372
    -1
  0
DIMSTYLE
105
223
330
A
100
AcDbSymbolTableRecord
100
AcDbDimStyleTableRecord
  2
AM_JIS$6
 70
     0
  4
"
 41
2.5
 42
1.0
 43
10.0
 44
1.0
 47
0.1
 48
0.1
 73
     0
 74
     0
 78
     8
 79
     2
140
3.5
141
0.0
143
0.0393701
146
0.71
147
1.5
172
     1
176
   256
177
   256
178
     2
271
     2
272
     3
274
     4
283
     0
284
     8
340
11
341
91
342
91
343
91
344
91
371
    -1
372
    -1
  0
DIMSTYLE
105
224
330
A
100
AcDbSymbolTableRecord
100
AcDbDimStyleTableRecord
  2
AM_JIS$7
 70
     0
  4
"
 41
2.5
 42
1.0
 43
10.0
 44
1.0
 47
0.1
 48
0.1
 73
     0
 74
     0
 77
     3
 78
     8
 79
     2
140
5.0
141
0.0
143
0.0393701
146
0.71
147
1.5
172
     1
176
   256
177
   256
178
     2
271
     2
272
     3
274
     4
283
     0
284
     8
340
11
341
91
342
91
343
91
344
91
371
    -1
372
    -1
  0
DIMSTYLE
105
225
330
A
100
AcDbSymbolTableRecord
100
AcDbDimStyleTableRecord
  2
AM_JIS$SF
 70
     0
  4
"
 41
2.5
 42
1.0
 43
10.0
 44
1.0
 47
0.1
 48
0.1
 73
     0
 74
     0
 75
     1
 76
     1
 77
     3
 78
     8
 79
     2
140
3.5
141
0.0
143
0.0393701
146
0.71
147
1.5
172
     1
176
   256
177
   256
178
     2
271
     2
272
     3
274
     4
283
     0
284
     8
340
11
341
91
342
91
343
91
344
91
371
    -1
372
    -1
  0
DIMSTYLE
105
226
330
A
100
AcDbSymbolTableRecord
100
AcDbDimStyleTableRecord
  2
AM_JIS$SH
 70
     0
  4
"
 41
2.5
 42
1.0
 43
10.0
 44
1.0
 47
0.1
 48
0.1
 73
     0
 74
     0
 75
     1
 76
     1
 77
     3
 78
     8
 79
     2
140
3.5
141
0.0
143
0.0393701
144
2.0
146
0.71
147
1.5
172
     1
173
     1
176
   256
177
   256
178
     2
271
     2
272
     3
274
     4
283
     0
284
     8
340
11
341
91
342
91
343
71
344
91
371
    -1
372
    -1
  0
DIMSTYLE
105
708
330
A
100
AcDbSymbolTableRecord
100
AcDbDimStyleTableRecord
  2
ベン$2
 70
     0
  4
"
 41
2.000000000000001
 42
1.0
 43
10.0
 44
1.0
 47
0.1
 48
0.1
 73
     0
 74
     0
 77
     3
 78
     8
 79
     2
140
2.7
141
0.0
143
0.0393701
146
0.71
147
0.7500000000000002
172
     1
176
   256
177
   256
178
     2
271
     2
272
     2
283
     0
284
     8
340
109
341
91
342
91
371
    -1
372
    -1
  0
DIMSTYLE
105
709
102
{ACAD_REACTORS
330
111C
330
192B
102
}
330
A
100
AcDbSymbolTableRecord
100
AcDbDimStyleTableRecord
  2
ベン$0
 70
     0
  4
"
 41
2.000000000000001
 42
1.0
 43
10.0
 44
1.0
 47
0.1
 48
0.1
 73
     0
 74
     0
 77
     3
 78
     8
 79
     2
140
2.7
141
0.0
143
0.0393701
146
0.71
147
0.7500000000000002
172
     1
176
   256
177
   256
178
     2
271
     2
272
     2
283
     0
284
     8
340
109
341
91
342
91
371
    -1
372
    -1
  0
ENDTAB
  0
TABLE
  2
BLOCK_RECORD
  5
1
330
0
100
AcDbSymbolTable
 70
    33
  0
BLOCK_RECORD
  5
1F
102
{ACAD_XDICTIONARY
360
179
102
}
330
1
100
AcDbSymbolTableRecord
100
AcDbBlockTableRecord
  2
*Model_Space
340
22
  0
BLOCK_RECORD
  5
1B
330
1
100
AcDbSymbolTableRecord
100
AcDbBlockTableRecord
  2
*Paper_Space
340
1E
  0
BLOCK_RECORD
  5
23
330
1
100
AcDbSymbolTableRecord
100
AcDbBlockTableRecord
  2
*Paper_Space0
340
26
  0
BLOCK_RECORD
  5
71
330
1
100
AcDbSymbolTableRecord
100
AcDbBlockTableRecord
  2
GENAXEH
340
0
  0
BLOCK_RECORD
  5
91
330
1
100
AcDbSymbolTableRecord
100
AcDbBlockTableRecord
  2
_Open30
340
0
102
{BLKREFS
331
1AC6
331
1AC7
331
1AF8
331
1AF9
102
}
  0
BLOCK_RECORD
  5
48F
330
1
100
AcDbSymbolTableRecord
100
AcDbBlockTableRecord
  2
仕上
340
0
310
28000000200000002000000001000800000000000004000000000000000000000000000000000000000000004000000080000000FF000000002000004020000080200000FF200000004000004040000080400000FF400000006000004060000080600000FF600000008000004080000080800000FF80000000A0000040A000
310
0080A00000FFA0000000C0000040C0000080C00000FFC0000000FF000040FF000080FF0000FFFF0000000020004000200080002000FF002000002020004020200080202000FF202000004020004040200080402000FF402000006020004060200080602000FF602000008020004080200080802000FF80200000A0200040A0
310
200080A02000FFA0200000C0200040C0200080C02000FFC0200000FF200040FF200080FF2000FFFF2000000040004000400080004000FF004000002040004020400080204000FF204000004040004040400080404000FF404000006040004060400080604000FF604000008040004080400080804000FF80400000A0400040
310
A0400080A04000FFA0400000C0400040C0400080C04000FFC0400000FF400040FF400080FF4000FFFF4000000060004000600080006000FF006000002060004020600080206000FF206000004060004040600080406000FF406000006060004060600080606000FF606000008060004080600080806000FF80600000A06000
310
40A0600080A06000FFA0600000C0600040C0600080C06000FFC0600000FF600040FF600080FF6000FFFF6000000080004000800080008000FF008000002080004020800080208000FF208000004080004040800080408000FF408000006080004060800080608000FF608000008080004080800080808000FF80800000A080
310
0040A0800080A08000FFA0800000C0800040C0800080C08000FFC0800000FF800040FF800080FF8000FFFF80000000A0004000A0008000A000FF00A0000020A0004020A0008020A000FF20A0000040A0004040A0008040A000FF40A0000060A0004060A0008060A000FF60A0000080A0004080A0008080A000FF80A00000A0
310
A00040A0A00080A0A000FFA0A00000C0A00040C0A00080C0A000FFC0A00000FFA00040FFA00080FFA000FFFFA0000000C0004000C0008000C000FF00C0000020C0004020C0008020C000FF20C0000040C0004040C0008040C000FF40C0000060C0004060C0008060C000FF60C0000080C0004080C0008080C000FF80C00000
310
A0C00040A0C00080A0C000FFA0C00000C0C00040C0C00080C0C000FFC0C00000FFC00040FFC00080FFC000FFFFC0000000FF004000FF008000FF00FF00FF000020FF004020FF008020FF00FF20FF000040FF004040FF008040FF00FF40FF000060FF004060FF008060FF00FF60FF000080FF004080FF008080FF00FF80FF00
310
00A0FF0040A0FF0080A0FF00FFA0FF0000C0FF0040C0FF0080C0FF00FFC0FF0000FFFF0040FFFF0080FFFF00FFFFFF0000000000000000000000000000000000000000000000000000000000000000000000000000000000000000000000000000000000000000000000000000000000000000000000000000000000000000
310
00000000000000000000000000000000000000000000000000000000000000000000000000000000000000000000000000000000000000000000000000000000000000000000000000000000000000000000000000000000000000000000000000000000000000000000000000000000000000000000000000000000000000
310
00000000000000000000000000000000000000000000000000000000000000000000000000000000000000000000000000000000000000000000000000000000000000000000000000000000000000000000000000000000000000000000000000000000000000000000000000000000000000000000000000000000000000
310
00000000000000000000000000000000000000000000000000000000000000000000000000000000000000000000000000000000000000000000000000FF000000000000000000000000000000000000FF000000000000000000000000FF00FF000000FF0000FF0000FF0000FF0000FFFF000000000000000000000000FF00
310
FFFF00FFFF00FFFF0000FFFF00FF00FFFFFF000000FFFF00000000000000FFFF00FF00FF00FFFF00FFFF00FFFF00FFFF00FFFF00000000FFFFFFFFFFFFFFFFFFFFFFFFFFFFFFFFFFFFFFFFFFFFFFFFFFFFFFFF0000000000000000000000FFFFFFFFFFFFFFFFFFFFFF0000FFFFFFFFFF00FF000000000000000000000000FF
310
FFFFFFFFFFFFFFFFFF000000FFFFFFFFFF00FF000000000000000000000000FF000000000000000000000000000000000000FF00000000000000000000000000000000000000000000000000000000000000000000000000000000000000000000000000000000000000000000000000000000000000000000000000000000
310
00000000000000000000000000000000000000000000000000000000000000000000000000000000000000000000000000000000000000000000000000000000000000000000000000000000000000000000000000000000000000000000000000000000000000000000000000000000000000000000000000000000000000
310
00000000000000000000000000000000000000000000000000000000000000000000000000000000000000000000000000000000000000000000000000000000000000000000000000000000000000000000000000000000000000000000000000000000000000000000000000000000000000000000000000000000000000
310
0000000000000000000000000000000000000000000000000000000000000000000000000000000000000000000000000000000000000000
1001
ACAD
1000
DesignCenter Data
1002
{
1070
     1
1070
     4
1002
}
  0
BLOCK_RECORD
  5
4AC
330
1
100
AcDbSymbolTableRecord
100
AcDbBlockTableRecord
  2
波形
340
0
310
28000000200000002000000001000800000000000004000000000000000000000000000000000000000000004000000080000000FF000000002000004020000080200000FF200000004000004040000080400000FF400000006000004060000080600000FF600000008000004080000080800000FF80000000A0000040A000
310
0080A00000FFA0000000C0000040C0000080C00000FFC0000000FF000040FF000080FF0000FFFF0000000020004000200080002000FF002000002020004020200080202000FF202000004020004040200080402000FF402000006020004060200080602000FF602000008020004080200080802000FF80200000A0200040A0
310
200080A02000FFA0200000C0200040C0200080C02000FFC0200000FF200040FF200080FF2000FFFF2000000040004000400080004000FF004000002040004020400080204000FF204000004040004040400080404000FF404000006040004060400080604000FF604000008040004080400080804000FF80400000A0400040
310
A0400080A04000FFA0400000C0400040C0400080C04000FFC0400000FF400040FF400080FF4000FFFF4000000060004000600080006000FF006000002060004020600080206000FF206000004060004040600080406000FF406000006060004060600080606000FF606000008060004080600080806000FF80600000A06000
310
40A0600080A06000FFA0600000C0600040C0600080C06000FFC0600000FF600040FF600080FF6000FFFF6000000080004000800080008000FF008000002080004020800080208000FF208000004080004040800080408000FF408000006080004060800080608000FF608000008080004080800080808000FF80800000A080
310
0040A0800080A08000FFA0800000C0800040C0800080C08000FFC0800000FF800040FF800080FF8000FFFF80000000A0004000A0008000A000FF00A0000020A0004020A0008020A000FF20A0000040A0004040A0008040A000FF40A0000060A0004060A0008060A000FF60A0000080A0004080A0008080A000FF80A00000A0
310
A00040A0A00080A0A000FFA0A00000C0A00040C0A00080C0A000FFC0A00000FFA00040FFA00080FFA000FFFFA0000000C0004000C0008000C000FF00C0000020C0004020C0008020C000FF20C0000040C0004040C0008040C000FF40C0000060C0004060C0008060C000FF60C0000080C0004080C0008080C000FF80C00000
310
A0C00040A0C00080A0C000FFA0C00000C0C00040C0C00080C0C000FFC0C00000FFC00040FFC00080FFC000FFFFC0000000FF004000FF008000FF00FF00FF000020FF004020FF008020FF00FF20FF000040FF004040FF008040FF00FF40FF000060FF004060FF008060FF00FF60FF000080FF004080FF008080FF00FF80FF00
310
00A0FF0040A0FF0080A0FF00FFA0FF0000C0FF0040C0FF0080C0FF00FFC0FF0000FFFF0040FFFF0080FFFF00FFFFFF0000000000000000000000000000000000000000000000000000000000000000000000000000000000000000000000000000000000000000000000000000000000000000000000000000000000000000
310
00000000000000000000000000000000000000000000000000000000000000000000000000000000000000000000000000000000000000000000000000000000000000000000000000000000000000000000000000000000000000000000000000000000000000000000000000000000000000000000000000000000000000
310
00000000000000000000000000000000000000000000000000000000000000000000000000000000000000000000000000000000000000000000000000000000000000000000000000000000000000000000000000000000000000000000000000000000000000000000000000000000000000000000000000000000000000
310
000000000000000000000000000000000000000000000000000000000000000000000000000000000000000000000000000000000000000000000000000000000000000000000000000000000000000000000000FF0000000000000000000000000000000000000000FFFF00000000000000000000FFFF0000000000000000
310
0000000000000000FFFF0000FFFF00000000000000000000FF00000000000000000000000000FFFF000000000000FF00000000000000000000FF000000000000000000FFFFFF000000000000000000FF00000000000000000000FFFF000000FFFFFFFF00000000000000000000000000FFFF00000000000000000000FFFFFF
310
00000000000000000000000000000000000000FF0000000000000000000000000000000000000000000000000000000000000000000000000000000000000000000000000000000000000000000000000000000000000000000000000000000000000000000000000000000000000000000000000000000000000000000000
310
00000000000000000000000000000000000000000000000000000000000000000000000000000000000000000000000000000000000000000000000000000000000000000000000000000000000000000000000000000000000000000000000000000000000000000000000000000000000000000000000000000000000000
310
00000000000000000000000000000000000000000000000000000000000000000000000000000000000000000000000000000000000000000000000000000000000000000000000000000000000000000000000000000000000000000000000000000000000000000000000000000000000000000000000000000000000000
310
0000000000000000000000000000000000000000000000000000000000000000000000000000000000000000000000000000000000000000
1001
ACAD
1000
DesignCenter Data
1002
{
1070
     1
1070
     4
1002
}
  0
BLOCK_RECORD
  5
4B2
330
1
100
AcDbSymbolTableRecord
100
AcDbBlockTableRecord
  2
35S
340
0
310
28000000200000002000000001000800000000000004000000000000000000000000000000000000000000004000000080000000FF000000002000004020000080200000FF200000004000004040000080400000FF400000006000004060000080600000FF600000008000004080000080800000FF80000000A0000040A000
310
0080A00000FFA0000000C0000040C0000080C00000FFC0000000FF000040FF000080FF0000FFFF0000000020004000200080002000FF002000002020004020200080202000FF202000004020004040200080402000FF402000006020004060200080602000FF602000008020004080200080802000FF80200000A0200040A0
310
200080A02000FFA0200000C0200040C0200080C02000FFC0200000FF200040FF200080FF2000FFFF2000000040004000400080004000FF004000002040004020400080204000FF204000004040004040400080404000FF404000006040004060400080604000FF604000008040004080400080804000FF80400000A0400040
310
A0400080A04000FFA0400000C0400040C0400080C04000FFC0400000FF400040FF400080FF4000FFFF4000000060004000600080006000FF006000002060004020600080206000FF206000004060004040600080406000FF406000006060004060600080606000FF606000008060004080600080806000FF80600000A06000
310
40A0600080A06000FFA0600000C0600040C0600080C06000FFC0600000FF600040FF600080FF6000FFFF6000000080004000800080008000FF008000002080004020800080208000FF208000004080004040800080408000FF408000006080004060800080608000FF608000008080004080800080808000FF80800000A080
310
0040A0800080A08000FFA0800000C0800040C0800080C08000FFC0800000FF800040FF800080FF8000FFFF80000000A0004000A0008000A000FF00A0000020A0004020A0008020A000FF20A0000040A0004040A0008040A000FF40A0000060A0004060A0008060A000FF60A0000080A0004080A0008080A000FF80A00000A0
310
A00040A0A00080A0A000FFA0A00000C0A00040C0A00080C0A000FFC0A00000FFA00040FFA00080FFA000FFFFA0000000C0004000C0008000C000FF00C0000020C0004020C0008020C000FF20C0000040C0004040C0008040C000FF40C0000060C0004060C0008060C000FF60C0000080C0004080C0008080C000FF80C00000
310
A0C00040A0C00080A0C000FFA0C00000C0C00040C0C00080C0C000FFC0C00000FFC00040FFC00080FFC000FFFFC0000000FF004000FF008000FF00FF00FF000020FF004020FF008020FF00FF20FF000040FF004040FF008040FF00FF40FF000060FF004060FF008060FF00FF60FF000080FF004080FF008080FF00FF80FF00
310
00A0FF0040A0FF0080A0FF00FFA0FF0000C0FF0040C0FF0080C0FF00FFC0FF0000FFFF0040FFFF0080FFFF00FFFFFF0000000000000000000000000000000000000000000000000000000000000000000000000000000000000000000000000000000000000000000000000000000000000000000000000000000000000000
310
000000000000000000000000000000000000000000000000000000000000000000FF000000000000000000000000000000000000000000000000000000000000FF00FF0000000000000000000000000000000000000000000000000000000000FF00FF00000000000000000000000000000000000000000000000000000000
310
FF000000FF000000000000000000000000000000000000000000000000000000FF000000FF0000000000000000000000000000000000000000000000000000FF0000000000FF000000000000000000000000000000000000000000000000FF000000000000FF000000000000000000000000000000000000000000000000FF
310
00000000000000FF00000000000000000000000000000000000000000000FF0000000000000000FF00000000000000000000000000000000000000000000FF000000000000000000FF0000000000000000000000000000000000000000FF0000000000000000000000FF000000000000000000000000000000000000FF0000
310
00000000000000000000FF000000000000000000000000000000000000FF00000000000000000000000000FF00000000000000000000000000000000FF0000000000000000000000000000FF00000000000000000000000000000000FF000000000000000000000000000000FF0000000000000000000000000000FF000000
310
00000000000000000000000000FF00000000000000000000000000FF000000000000000000000000000000000000FF000000000000000000000000FF00000000000000000000000000000000000000FF00000000000000000000FF0000000000000000000000000000000000000000FF00000000000000000000FF00000000
310
0000000000000000000000000000000000FF0000000000000000FF00000000000000000000000000000000000000000000FF00000000000000FF000000000000000000000000000000000000000000000000FF000000000000FF000000000000000000000000000000000000000000000000FF0000000000FF000000000000
310
0000000000000000000000000000000000000000FF00000000FF0000000000000000000000000000000000000000000000000000FF000000FFFFFFFFFFFFFFFFFFFFFFFFFFFFFFFFFFFFFFFFFFFFFFFFFFFFFFFFFFFF0000000000000000000000000000000000000000000000000000000000000000000000000000000000
310
0000000000000000000000000000000000000000000000000000000000000000000000000000000000000000000000000000000000000000
1001
ACAD
1000
DesignCenter Data
1002
{
1070
     1
1070
     4
1002
}
  0
BLOCK_RECORD
  5
4B9
330
1
100
AcDbSymbolTableRecord
100
AcDbBlockTableRecord
  2
12.5S
340
0
310
28000000200000002000000001000800000000000004000000000000000000000000000000000000000000004000000080000000FF000000002000004020000080200000FF200000004000004040000080400000FF400000006000004060000080600000FF600000008000004080000080800000FF80000000A0000040A000
310
0080A00000FFA0000000C0000040C0000080C00000FFC0000000FF000040FF000080FF0000FFFF0000000020004000200080002000FF002000002020004020200080202000FF202000004020004040200080402000FF402000006020004060200080602000FF602000008020004080200080802000FF80200000A0200040A0
310
200080A02000FFA0200000C0200040C0200080C02000FFC0200000FF200040FF200080FF2000FFFF2000000040004000400080004000FF004000002040004020400080204000FF204000004040004040400080404000FF404000006040004060400080604000FF604000008040004080400080804000FF80400000A0400040
310
A0400080A04000FFA0400000C0400040C0400080C04000FFC0400000FF400040FF400080FF4000FFFF4000000060004000600080006000FF006000002060004020600080206000FF206000004060004040600080406000FF406000006060004060600080606000FF606000008060004080600080806000FF80600000A06000
310
40A0600080A06000FFA0600000C0600040C0600080C06000FFC0600000FF600040FF600080FF6000FFFF6000000080004000800080008000FF008000002080004020800080208000FF208000004080004040800080408000FF408000006080004060800080608000FF608000008080004080800080808000FF80800000A080
310
0040A0800080A08000FFA0800000C0800040C0800080C08000FFC0800000FF800040FF800080FF8000FFFF80000000A0004000A0008000A000FF00A0000020A0004020A0008020A000FF20A0000040A0004040A0008040A000FF40A0000060A0004060A0008060A000FF60A0000080A0004080A0008080A000FF80A00000A0
310
A00040A0A00080A0A000FFA0A00000C0A00040C0A00080C0A000FFC0A00000FFA00040FFA00080FFA000FFFFA0000000C0004000C0008000C000FF00C0000020C0004020C0008020C000FF20C0000040C0004040C0008040C000FF40C0000060C0004060C0008060C000FF60C0000080C0004080C0008080C000FF80C00000
310
A0C00040A0C00080A0C000FFA0C00000C0C00040C0C00080C0C000FFC0C00000FFC00040FFC00080FFC000FFFFC0000000FF004000FF008000FF00FF00FF000020FF004020FF008020FF00FF20FF000040FF004040FF008040FF00FF40FF000060FF004060FF008060FF00FF60FF000080FF004080FF008080FF00FF80FF00
310
00A0FF0040A0FF0080A0FF00FFA0FF0000C0FF0040C0FF0080C0FF00FFC0FF0000FFFF0040FFFF0080FFFF00FFFFFF0000000000000000000000000000000000000000000000000000000000000000000000000000000000000000000000000000000000000000000000000000000000000000000000000000000000000000
310
00000000000000000000000000000000000000000000000000000000000000000000000000000000000000000000000000000000000000000000000000000000000000000000000000000000000000000000000000000000000000000000000000000000000000000000000000000000000000000000000000000000000000
310
000000000000000000000000000000000000000000000000000000000000000000000000000000000000000000000000000000000000000000000000000000000000000000000000000000000000000000000000000000000000FF0000000000000000000000000000FF000000000000000000000000000000FF00FF000000
310
000000000000000000FF00FF0000000000000000000000000000FF00FF000000000000000000000000FF00FF00000000000000000000000000FF000000FF00000000000000000000FF000000FF000000000000000000000000FF000000FF00000000000000000000FF000000FF0000000000000000000000FF0000000000FF
310
0000000000000000FF0000000000FF00000000000000000000FF000000000000FF00000000000000FF0000000000FF000000000000000000FF00000000000000FF000000000000FF00000000000000FF0000000000000000FF0000000000000000FF0000000000FF00000000000000FF00000000000000FF00000000000000
310
000000FF000000FF000000000000000000FF000000000000FF00000000000000000000FF000000FF000000000000000000FF0000000000FF000000000000000000000000FF00FF0000000000000000000000FF00000000FF000000000000000000000000FF00FF0000000000000000000000FF000000FFFFFFFFFFFFFFFFFF
310
FFFFFFFFFFFFFFFFFFFFFFFFFFFFFFFFFFFFFFFFFF00000000000000000000000000000000000000000000000000000000000000000000000000000000000000000000000000000000000000000000000000000000000000000000000000000000000000000000000000000000000000000000000000000000000000000000
310
00000000000000000000000000000000000000000000000000000000000000000000000000000000000000000000000000000000000000000000000000000000000000000000000000000000000000000000000000000000000000000000000000000000000000000000000000000000000000000000000000000000000000
310
0000000000000000000000000000000000000000000000000000000000000000000000000000000000000000000000000000000000000000
1001
ACAD
1000
DesignCenter Data
1002
{
1070
     1
1070
     4
1002
}
  0
BLOCK_RECORD
  5
4C3
330
1
100
AcDbSymbolTableRecord
100
AcDbBlockTableRecord
  2
6.3S
340
0
310
28000000200000002000000001000800000000000004000000000000000000000000000000000000000000004000000080000000FF000000002000004020000080200000FF200000004000004040000080400000FF400000006000004060000080600000FF600000008000004080000080800000FF80000000A0000040A000
310
0080A00000FFA0000000C0000040C0000080C00000FFC0000000FF000040FF000080FF0000FFFF0000000020004000200080002000FF002000002020004020200080202000FF202000004020004040200080402000FF402000006020004060200080602000FF602000008020004080200080802000FF80200000A0200040A0
310
200080A02000FFA0200000C0200040C0200080C02000FFC0200000FF200040FF200080FF2000FFFF2000000040004000400080004000FF004000002040004020400080204000FF204000004040004040400080404000FF404000006040004060400080604000FF604000008040004080400080804000FF80400000A0400040
310
A0400080A04000FFA0400000C0400040C0400080C04000FFC0400000FF400040FF400080FF4000FFFF4000000060004000600080006000FF006000002060004020600080206000FF206000004060004040600080406000FF406000006060004060600080606000FF606000008060004080600080806000FF80600000A06000
310
40A0600080A06000FFA0600000C0600040C0600080C06000FFC0600000FF600040FF600080FF6000FFFF6000000080004000800080008000FF008000002080004020800080208000FF208000004080004040800080408000FF408000006080004060800080608000FF608000008080004080800080808000FF80800000A080
310
0040A0800080A08000FFA0800000C0800040C0800080C08000FFC0800000FF800040FF800080FF8000FFFF80000000A0004000A0008000A000FF00A0000020A0004020A0008020A000FF20A0000040A0004040A0008040A000FF40A0000060A0004060A0008060A000FF60A0000080A0004080A0008080A000FF80A00000A0
310
A00040A0A00080A0A000FFA0A00000C0A00040C0A00080C0A000FFC0A00000FFA00040FFA00080FFA000FFFFA0000000C0004000C0008000C000FF00C0000020C0004020C0008020C000FF20C0000040C0004040C0008040C000FF40C0000060C0004060C0008060C000FF60C0000080C0004080C0008080C000FF80C00000
310
A0C00040A0C00080A0C000FFA0C00000C0C00040C0C00080C0C000FFC0C00000FFC00040FFC00080FFC000FFFFC0000000FF004000FF008000FF00FF00FF000020FF004020FF008020FF00FF20FF000040FF004040FF008040FF00FF40FF000060FF004060FF008060FF00FF60FF000080FF004080FF008080FF00FF80FF00
310
00A0FF0040A0FF0080A0FF00FFA0FF0000C0FF0040C0FF0080C0FF00FFC0FF0000FFFF0040FFFF0080FFFF00FFFFFF0000000000000000000000000000000000000000000000000000000000000000000000000000000000000000000000000000000000000000000000000000000000000000000000000000000000000000
310
00000000000000000000000000000000000000000000000000000000000000000000000000000000000000000000000000000000000000000000000000000000000000000000000000000000000000000000000000000000000000000000000000000000000000000000000000000000000000000000000000000000000000
310
00000000000000000000000000000000000000000000000000000000000000000000000000000000000000000000000000000000000000000000000000000000000000000000000000000000000000000000000000000000000000000000000000000000000000000000000000000000000000000000000000000000000000
310
00000000000000000000000000000000000000000000000000FF0000000000000000FF000000000000000000FF0000000000000000000000FF00FF00000000000000FFFF00000000000000FF00FF00000000000000000000FF00FF000000000000FF00FF00000000000000FF00FF000000000000000000FF000000FF000000
310
0000FF0000FF0000000000FF000000FF0000000000000000FF000000FF00000000FF000000FF0000000000FF000000FF00000000000000FF0000000000FF000000FF00000000FF000000FF0000000000FF000000000000FF0000000000FF0000FF0000000000FF000000FF0000000000FF0000000000FF00000000000000FF
310
00FF000000000000FF00FF00000000000000FF00000000FF00000000000000FFFF00000000000000FF00FF00000000000000FF000000FFFFFFFFFFFFFFFFFFFFFFFFFFFFFFFFFFFFFFFFFFFFFFFFFFFFFFFFFFFF00000000000000000000000000000000000000000000000000000000000000000000000000000000000000
310
00000000000000000000000000000000000000000000000000000000000000000000000000000000000000000000000000000000000000000000000000000000000000000000000000000000000000000000000000000000000000000000000000000000000000000000000000000000000000000000000000000000000000
310
00000000000000000000000000000000000000000000000000000000000000000000000000000000000000000000000000000000000000000000000000000000000000000000000000000000000000000000000000000000000000000000000000000000000000000000000000000000000000000000000000000000000000
310
0000000000000000000000000000000000000000000000000000000000000000000000000000000000000000000000000000000000000000
1001
ACAD
1000
DesignCenter Data
1002
{
1070
     1
1070
     4
1002
}
  0
BLOCK_RECORD
  5
4D0
330
1
100
AcDbSymbolTableRecord
100
AcDbBlockTableRecord
  2
0.8S
340
0
310
28000000200000002000000001000800000000000004000000000000000000000000000000000000000000004000000080000000FF000000002000004020000080200000FF200000004000004040000080400000FF400000006000004060000080600000FF600000008000004080000080800000FF80000000A0000040A000
310
0080A00000FFA0000000C0000040C0000080C00000FFC0000000FF000040FF000080FF0000FFFF0000000020004000200080002000FF002000002020004020200080202000FF202000004020004040200080402000FF402000006020004060200080602000FF602000008020004080200080802000FF80200000A0200040A0
310
200080A02000FFA0200000C0200040C0200080C02000FFC0200000FF200040FF200080FF2000FFFF2000000040004000400080004000FF004000002040004020400080204000FF204000004040004040400080404000FF404000006040004060400080604000FF604000008040004080400080804000FF80400000A0400040
310
A0400080A04000FFA0400000C0400040C0400080C04000FFC0400000FF400040FF400080FF4000FFFF4000000060004000600080006000FF006000002060004020600080206000FF206000004060004040600080406000FF406000006060004060600080606000FF606000008060004080600080806000FF80600000A06000
310
40A0600080A06000FFA0600000C0600040C0600080C06000FFC0600000FF600040FF600080FF6000FFFF6000000080004000800080008000FF008000002080004020800080208000FF208000004080004040800080408000FF408000006080004060800080608000FF608000008080004080800080808000FF80800000A080
310
0040A0800080A08000FFA0800000C0800040C0800080C08000FFC0800000FF800040FF800080FF8000FFFF80000000A0004000A0008000A000FF00A0000020A0004020A0008020A000FF20A0000040A0004040A0008040A000FF40A0000060A0004060A0008060A000FF60A0000080A0004080A0008080A000FF80A00000A0
310
A00040A0A00080A0A000FFA0A00000C0A00040C0A00080C0A000FFC0A00000FFA00040FFA00080FFA000FFFFA0000000C0004000C0008000C000FF00C0000020C0004020C0008020C000FF20C0000040C0004040C0008040C000FF40C0000060C0004060C0008060C000FF60C0000080C0004080C0008080C000FF80C00000
310
A0C00040A0C00080A0C000FFA0C00000C0C00040C0C00080C0C000FFC0C00000FFC00040FFC00080FFC000FFFFC0000000FF004000FF008000FF00FF00FF000020FF004020FF008020FF00FF20FF000040FF004040FF008040FF00FF40FF000060FF004060FF008060FF00FF60FF000080FF004080FF008080FF00FF80FF00
310
00A0FF0040A0FF0080A0FF00FFA0FF0000C0FF0040C0FF0080C0FF00FFC0FF0000FFFF0040FFFF0080FFFF00FFFFFF0000000000000000000000000000000000000000000000000000000000000000000000000000000000000000000000000000000000000000000000000000000000000000000000000000000000000000
310
00000000000000000000000000000000000000000000000000000000000000000000000000000000000000000000000000000000000000000000000000000000000000000000000000000000000000000000000000000000000000000000000000000000000000000000000000000000000000000000000000000000000000
310
00000000000000000000000000000000000000000000000000000000000000000000000000000000000000000000000000000000000000000000000000000000000000000000000000000000000000000000000000000000000000000000000000000000000000000000000000000000000000000000000000000000000000
310
0000000000000000000000000000000000000000000000000000000000000000000000000000000000000000000000000000000000000000FF000000000000FF000000000000FF000000000000FF000000000000000000FFFF0000000000FF00FF0000000000FFFF0000000000FFFF0000000000000000FF00FF00000000FF
310
00FF00000000FF00FF00000000FF00FF00000000000000FF0000FF000000FF000000FF000000FF0000FF000000FF0000FF000000000000FF000000FF0000FF000000FF0000FF000000FF0000FF000000FF0000000000FF00000000FF00FF0000000000FF00FF00000000FF00FF00000000FF00000000FF0000000000FFFF00
310
00000000FFFF0000000000FFFF0000000000FF000000FFFFFFFFFFFFFFFFFFFFFFFFFFFFFFFFFFFFFFFFFFFFFFFFFFFFFFFFFFFF000000000000000000000000000000000000000000000000000000000000000000000000000000000000000000000000000000000000000000000000000000000000000000000000000000
310
00000000000000000000000000000000000000000000000000000000000000000000000000000000000000000000000000000000000000000000000000000000000000000000000000000000000000000000000000000000000000000000000000000000000000000000000000000000000000000000000000000000000000
310
00000000000000000000000000000000000000000000000000000000000000000000000000000000000000000000000000000000000000000000000000000000000000000000000000000000000000000000000000000000000000000000000000000000000000000000000000000000000000000000000000000000000000
310
0000000000000000000000000000000000000000000000000000000000000000000000000000000000000000000000000000000000000000
1001
ACAD
1000
DesignCenter Data
1002
{
1070
     1
1070
     4
1002
}
  0
BLOCK_RECORD
  5
8BC
102
{ACAD_XDICTIONARY
360
8BD
102
}
330
1
100
AcDbSymbolTableRecord
100
AcDbBlockTableRecord
  2
BM-12エンドキャップ
340
0
310
28000000200000002000000001002000000000000010000001000000010000000000000000000000302821FF302821FF302821FF302821FF302821FF302821FF302821FF302821FF302821FF302821FF302821FF302821FF302821FF302821FF302821FF302821FF302821FF302821FF302821FF302821FF302821FF302821
310
FF302821FF302821FF302821FF302821FF302821FF302821FF302821FF302821FF302821FF302821FF302821FF302821FF302821FF302821FF302821FF302821FF302821FF302821FF302821FF302821FFFFFFFFFFFFFFFFFFFFFFFFFFFFFFFFFFFFFFFFFFFFFFFFFFFFFFFFFFFFFFFFFFFFFFFFFFFFFFFFFFFFFFFFFFFFFF
310
FFFFFFFFFFFF302821FF302821FF302821FF302821FF302821FF302821FF302821FF302821FF302821FF302821FF302821FF302821FF302821FF302821FF302821FF302821FF302821FF302821FF302821FFFFFFFFFF302821FF302821FF302821FF302821FF302821FF302821FF302821FF302821FFFFFFFFFF302821FF30
310
2821FFFFFFFFFF302821FF302821FF302821FF302821FF302821FF302821FF302821FF302821FF302821FF302821FF302821FF302821FF302821FF302821FF302821FF302821FF302821FF302821FFFFFFFFFF302821FF302821FF302821FF302821FF302821FF302821FF302821FF302821FF302821FFFFFFFFFF302821FF
310
302821FFFFFFFFFF302821FF302821FF302821FF302821FF302821FF302821FF302821FF302821FF302821FF302821FF302821FF302821FF302821FF302821FF302821FF302821FF302821FF302821FFFFFFFFFF302821FF302821FF302821FF302821FF302821FF302821FF302821FF302821FF302821FFFFFFFFFF302821
310
FF302821FF302821FF302821FF302821FF302821FF302821FF302821FF302821FF302821FF302821FF302821FF302821FF302821FF302821FF302821FF302821FF302821FF302821FF302821FF302821FFFFFFFFFF302821FF302821FF302821FF302821FF302821FF302821FF302821FF302821FF302821FFFFFFFFFF3028
310
21FF302821FF302821FF302821FF302821FF302821FF302821FF302821FF302821FF302821FF302821FF302821FF302821FF302821FF302821FF302821FF302821FF302821FF302821FF302821FF302821FFFFFFFFFF302821FF302821FF302821FF302821FF302821FF302821FF302821FF302821FF302821FFFFFFFFFF30
310
2821FF302821FF302821FF302821FF302821FF302821FF302821FF302821FF302821FF302821FF302821FF302821FF302821FF302821FF302821FF302821FF302821FF302821FF302821FF302821FF302821FFFFFFFFFF302821FF302821FF302821FF302821FF302821FF302821FF302821FF302821FF302821FFFFFFFFFF
310
302821FF302821FF302821FF302821FF302821FF302821FF302821FF302821FF302821FF302821FF302821FF302821FF302821FF302821FF302821FF302821FF302821FF302821FF302821FF302821FF302821FFFFFFFFFFFFFFFFFF302821FF302821FF302821FF302821FF302821FF302821FF302821FF302821FFFFFFFF
310
FF302821FF302821FF302821FF302821FF302821FF302821FF302821FF302821FF302821FF302821FF302821FF302821FF302821FF302821FF302821FF302821FF302821FF302821FF302821FF302821FF302821FFFFFFFFFFFFFFFFFF302821FF302821FF302821FF302821FF302821FF302821FF302821FF302821FFFFFF
310
FFFF302821FF302821FF302821FF302821FF302821FF302821FF302821FF302821FF302821FF302821FF302821FF302821FF302821FF302821FF302821FF302821FF302821FF302821FF302821FF302821FF302821FFFFFFFFFFFFFFFFFFFFFFFFFFFFFFFFFFFFFFFFFFFFFFFFFFFFFFFFFFFFFFFFFFFFFFFFFFFFFFFFFFFF
310
FFFFFF302821FF302821FF302821FF302821FF302821FF302821FF302821FF302821FF302821FF302821FF302821FF302821FF302821FF302821FF302821FF302821FF302821FF302821FF302821FF302821FF302821FFFFFFFFFFFFFFFFFF302821FF302821FF302821FF302821FF302821FF302821FF302821FF302821FF
310
FFFFFFFF302821FF302821FF302821FF302821FF302821FF302821FF302821FF302821FF302821FF302821FF302821FF302821FF302821FF302821FF302821FF302821FF302821FF302821FF302821FF302821FF302821FFFFFFFFFFFFFFFFFF302821FF302821FF302821FF302821FF302821FF302821FF302821FF302821
310
FFFFFFFFFF302821FF302821FF302821FF302821FF302821FF302821FF302821FF302821FF302821FF302821FF302821FF302821FF302821FF302821FF302821FF302821FF302821FF302821FF302821FF302821FF302821FFFFFFFFFF302821FF302821FF302821FF302821FF302821FF302821FF302821FF302821FF3028
310
21FFFFFFFFFF302821FF302821FF302821FF302821FF302821FF302821FF302821FF302821FF302821FF302821FF302821FF302821FF302821FF302821FF302821FF302821FF302821FF302821FF302821FF302821FF302821FFFFFFFFFF302821FF302821FF302821FF302821FF302821FF302821FF302821FF302821FF30
310
2821FFFFFFFFFF302821FF302821FF302821FF302821FF302821FF302821FF302821FF302821FF302821FF302821FF302821FF302821FF302821FF302821FF302821FF302821FF302821FF302821FF302821FF302821FF302821FFFFFFFFFF302821FF302821FF302821FF302821FF302821FF302821FF302821FF302821FF
310
302821FFFFFFFFFF302821FF302821FF302821FF302821FF302821FF302821FF302821FF302821FF302821FF302821FF302821FF302821FF302821FF302821FF302821FF302821FF302821FF302821FF302821FF302821FF302821FFFFFFFFFF302821FF302821FF302821FF302821FF302821FF302821FF302821FF302821
310
FF302821FFFFFFFFFF302821FF302821FF302821FF302821FF302821FF302821FF302821FF302821FF302821FF302821FF302821FF302821FF302821FF302821FF302821FF302821FF302821FF302821FF302821FF302821FF302821FFFFFFFFFF302821FF302821FF302821FF302821FF302821FF302821FF302821FF3028
310
21FF302821FFFFFFFFFF302821FF302821FF302821FF302821FF302821FF302821FF302821FF302821FF302821FF302821FF302821FF302821FF302821FF302821FF302821FF302821FF302821FF302821FF302821FF302821FF302821FFFFFFFFFF302821FF302821FF302821FF302821FF302821FF302821FF302821FF30
310
2821FF302821FFFFFFFFFF302821FF302821FF302821FF302821FF302821FF302821FF302821FF302821FF302821FF302821FF302821FF302821FF302821FF302821FF302821FF302821FF302821FF302821FF302821FF302821FF302821FFFFFFFFFFFFFFFFFF302821FF302821FF302821FF302821FF302821FF302821FF
310
302821FF302821FFFFFFFFFF302821FF302821FF302821FF302821FF302821FF302821FF302821FF302821FF302821FF302821FF302821FF302821FF302821FF302821FF302821FF302821FF302821FF302821FF302821FF302821FF302821FFFFFFFFFFFFFFFFFF302821FF302821FF302821FF302821FF302821FF302821
310
FF302821FF302821FFFFFFFFFF302821FF302821FF302821FF302821FF302821FF302821FF302821FF302821FF302821FF302821FF302821FF302821FF302821FF302821FF302821FF302821FF302821FF302821FF302821FF302821FF302821FFFFFFFFFFFFFFFFFFFFFFFFFFFFFFFFFFFFFFFFFFFFFFFFFFFFFFFFFFFFFF
310
FFFFFFFFFFFFFFFFFFFFFFFFFFFF302821FF302821FF302821FF302821FF302821FF302821FF302821FF302821FF302821FF302821FF302821FF302821FF302821FF302821FF302821FF302821FF302821FF302821FF302821FF302821FF302821FFFFFFFFFFFFFFFFFF302821FF302821FF302821FF302821FF302821FF30
310
2821FF302821FF302821FFFFFFFFFF302821FF302821FF302821FF302821FF302821FF302821FF302821FF302821FF302821FF302821FF302821FF302821FF302821FF302821FF302821FF302821FF302821FF302821FF302821FF302821FF302821FFFFFFFFFFFFFFFFFF302821FF302821FF302821FF302821FF302821FF
310
302821FF302821FF302821FFFFFFFFFF302821FF302821FF302821FF302821FF302821FF302821FF302821FF302821FF302821FF302821FF302821FF302821FF302821FF302821FF302821FF302821FF302821FF302821FF302821FF302821FF302821FFFFFFFFFF302821FF302821FF302821FF302821FF302821FF302821
310
FF302821FF302821FF302821FFFFFFFFFF302821FF302821FF302821FF302821FF302821FF302821FF302821FF302821FF302821FF302821FF302821FF302821FF302821FF302821FF302821FF302821FF302821FF302821FF302821FF302821FF302821FFFFFFFFFF302821FF302821FF302821FF302821FF302821FF3028
310
21FF302821FF302821FF302821FFFFFFFFFF302821FF302821FF302821FF302821FF302821FF302821FF302821FF302821FF302821FF302821FF302821FF302821FF302821FF302821FF302821FF302821FF302821FF302821FF302821FF302821FF302821FFFFFFFFFF302821FF302821FF302821FF302821FF302821FF30
310
2821FF302821FF302821FF302821FFFFFFFFFF302821FF302821FF302821FF302821FF302821FF302821FF302821FF302821FF302821FF302821FF302821FF302821FF302821FF302821FF302821FF302821FF302821FF302821FF302821FF302821FF302821FFFFFFFFFF302821FF302821FF302821FF302821FF302821FF
310
302821FF302821FF302821FF302821FFFFFFFFFF302821FF302821FF302821FF302821FF302821FF302821FF302821FF302821FF302821FF302821FF302821FF302821FF302821FF302821FF302821FF302821FF302821FF302821FF302821FF302821FF302821FFFFFFFFFF302821FF302821FF302821FF302821FF302821
310
FF302821FF302821FF302821FF302821FFFFFFFFFF302821FF302821FFFFFFFFFF302821FF302821FF302821FF302821FF302821FF302821FF302821FF302821FF302821FF302821FF302821FF302821FF302821FF302821FF302821FF302821FF302821FF302821FF302821FFFFFFFFFF302821FF302821FF302821FF3028
310
21FF302821FF302821FF302821FF302821FFFFFFFFFF302821FF302821FFFFFFFFFF302821FF302821FF302821FF302821FF302821FF302821FF302821FF302821FF302821FF302821FF302821FF302821FF302821FF302821FF302821FF302821FF302821FF302821FF302821FFFFFFFFFFFFFFFFFFFFFFFFFFFFFFFFFFFF
310
FFFFFFFFFFFFFFFFFFFFFFFFFFFFFFFFFFFFFFFFFFFFFFFFFFFFFFFFFFFFFFFFFFFFFF302821FF302821FF302821FF302821FF302821FF302821FF302821FF302821FF302821FF302821FF302821FF302821FF302821FF302821FF302821FF302821FF302821FF302821FF302821FF302821FF302821FF302821FF302821FF
310
302821FF302821FF302821FF302821FF302821FF302821FF302821FF302821FF302821FF302821FF302821FF302821FF302821FF302821FF302821FF302821FF302821FF302821FF
102
{BLKREFS
331
95F
102
}
1001
ACAD
1000
DesignCenter Data
1002
{
1070
     1
1070
     4
1002
}
  0
BLOCK_RECORD
  5
8D3
330
1
100
AcDbSymbolTableRecord
100
AcDbBlockTableRecord
  2
BN-30Nユニオンナット
340
0
310
28000000200000002000000001002000000000000010000001000000010000000000000000000000302821FF302821FF302821FF302821FF302821FF302821FF302821FF302821FF302821FF302821FF302821FF302821FF302821FF302821FF302821FF302821FF302821FF302821FF302821FF302821FF302821FF302821
310
FF302821FF302821FF302821FF302821FF302821FF302821FF302821FF302821FF302821FF302821FF302821FF302821FF302821FF302821FF302821FF302821FF302821FF302821FF302821FF302821FFFFFFFFFFFFFFFFFFFFFFFFFFFFFFFFFFFFFFFFFFFFFFFFFFFFFFFFFFFFFFFFFFFFFFFFFFFFFFFFFFFFFFFFFFFFFF
310
FFFF302821FF302821FF302821FF302821FF302821FF302821FF302821FF302821FF302821FF302821FF302821FF302821FF302821FF302821FF302821FF302821FF302821FF302821FF302821FFFFFFFFFFFFFFFFFF302821FF302821FF302821FF302821FF302821FF302821FF302821FF302821FF302821FF302821FF30
310
2821FFFFFFFFFF302821FF302821FF302821FF302821FF302821FF302821FF302821FF302821FF302821FF302821FF302821FF302821FF302821FF302821FF302821FF302821FF302821FF302821FFFFFFFFFF302821FF302821FF302821FF302821FF302821FF302821FF302821FF302821FF302821FF302821FF302821FF
310
302821FFFFFFFFFF302821FF302821FF302821FF302821FF302821FF302821FF302821FF302821FF302821FF302821FF302821FF302821FF302821FF302821FF302821FF302821FF302821FF302821FFFFFFFFFF302821FF302821FF302821FF302821FF302821FF302821FF302821FF302821FF302821FF302821FF302821
310
FF302821FFFFFFFFFF302821FF302821FF302821FF302821FF302821FF302821FF302821FF302821FF302821FF302821FF302821FF302821FF302821FF302821FF302821FF302821FF302821FF302821FFFFFFFFFF302821FF302821FF302821FF302821FF302821FF302821FF302821FF302821FF302821FF302821FF3028
310
21FF302821FFFFFFFFFF302821FF302821FF302821FF302821FF302821FF302821FF302821FF302821FF302821FF302821FF302821FF302821FF302821FF302821FF302821FF302821FF302821FF302821FFFFFFFFFF302821FF302821FF302821FF302821FF302821FF302821FF302821FF302821FF302821FF302821FF30
310
2821FF302821FFFFFFFFFF302821FF302821FF302821FF302821FF302821FF302821FF302821FF302821FF302821FF302821FF302821FF302821FF302821FF302821FF302821FF302821FF302821FF302821FFFFFFFFFF302821FF302821FF302821FF302821FF302821FF302821FF302821FF302821FF302821FF302821FF
310
302821FF302821FFFFFFFFFF302821FF302821FF302821FF302821FF302821FF302821FF302821FF302821FF302821FF302821FF302821FF302821FF302821FF302821FF302821FF302821FF302821FF302821FFFFFFFFFFFFFFFFFFFFFFFFFFFFFFFFFFFFFFFFFFFFFFFFFFFFFFFFFFFFFFFFFFFFFFFFFFFFFFFFFFFFFFFF
310
FFFFFFFFFFFFFFFFFFFFFFFFFF302821FF302821FF302821FF302821FF302821FF302821FF302821FF302821FF302821FF302821FF302821FF302821FF302821FF302821FF302821FF302821FF302821FF302821FFFFFFFFFFFFFFFFFF302821FF302821FF302821FF302821FF302821FF302821FF302821FF302821FF3028
310
21FF302821FFFFFFFFFFFFFFFFFF302821FF302821FF302821FF302821FF302821FF302821FF302821FF302821FF302821FF302821FF302821FF302821FF302821FF302821FF302821FF302821FF302821FF302821FFFFFFFFFFFFFFFFFF302821FF302821FF302821FF302821FF302821FF302821FF302821FF302821FF30
310
2821FF302821FF302821FFFFFFFFFF302821FF302821FF302821FF302821FF302821FF302821FF302821FF302821FF302821FF302821FF302821FF302821FF302821FF302821FF302821FF302821FF302821FF302821FFFFFFFFFF302821FF302821FF302821FF302821FF302821FF302821FF302821FF302821FF302821FF
310
302821FF302821FF302821FFFFFFFFFF302821FF302821FF302821FF302821FF302821FF302821FF302821FF302821FF302821FF302821FF302821FF302821FF302821FF302821FF302821FF302821FF302821FF302821FFFFFFFFFF302821FF302821FF302821FF302821FF302821FF302821FF302821FF302821FF302821
310
FF302821FF302821FF302821FFFFFFFFFF302821FF302821FF302821FF302821FF302821FF302821FF302821FF302821FF302821FF302821FF302821FF302821FF302821FF302821FF302821FF302821FF302821FF302821FFFFFFFFFF302821FF302821FF302821FF302821FF302821FF302821FF302821FF302821FF3028
310
21FF302821FF302821FF302821FFFFFFFFFF302821FF302821FF302821FF302821FF302821FF302821FF302821FF302821FF302821FF302821FF302821FF302821FF302821FF302821FF302821FF302821FF302821FF302821FFFFFFFFFF302821FF302821FF302821FF302821FF302821FF302821FF302821FF302821FF30
310
2821FF302821FF302821FF302821FFFFFFFFFF302821FF302821FF302821FF302821FF302821FF302821FF302821FF302821FF302821FF302821FF302821FF302821FF302821FF302821FF302821FF302821FF302821FF302821FFFFFFFFFF302821FF302821FF302821FF302821FF302821FF302821FF302821FF302821FF
310
302821FF302821FF302821FF302821FFFFFFFFFF302821FF302821FF302821FF302821FF302821FF302821FF302821FF302821FF302821FF302821FF302821FF302821FF302821FF302821FF302821FF302821FF302821FF302821FFFFFFFFFF302821FF302821FF302821FF302821FF302821FF302821FF302821FF302821
310
FF302821FF302821FF302821FF302821FFFFFFFFFF302821FF302821FF302821FF302821FF302821FF302821FF302821FF302821FF302821FF302821FF302821FF302821FF302821FF302821FF302821FF302821FF302821FF302821FFFFFFFFFF302821FF302821FF302821FF302821FF302821FF302821FF302821FF3028
310
21FF302821FF302821FF302821FF302821FFFFFFFFFF302821FF302821FF302821FF302821FF302821FF302821FF302821FF302821FF302821FF302821FF302821FF302821FF302821FF302821FF302821FF302821FF302821FF302821FFFFFFFFFF302821FF302821FF302821FF302821FF302821FF302821FF302821FF30
310
2821FF302821FF302821FF302821FF302821FFFFFFFFFF302821FF302821FF302821FF302821FF302821FF302821FF302821FF302821FF302821FF302821FF302821FF302821FF302821FF302821FF302821FF302821FF302821FF302821FFFFFFFFFF302821FF302821FF302821FF302821FF302821FF302821FF302821FF
310
302821FF302821FF302821FF302821FF302821FFFFFFFFFF302821FF302821FF302821FF302821FF302821FF302821FF302821FF302821FF302821FF302821FF302821FF302821FF302821FF302821FF302821FF302821FF302821FF302821FFFFFFFFFF302821FF302821FF302821FF302821FF302821FF302821FF302821
310
FF302821FF302821FF302821FF302821FF302821FFFFFFFFFF302821FF302821FF302821FF302821FF302821FF302821FF302821FF302821FF302821FF302821FF302821FF302821FF302821FF302821FF302821FF302821FF302821FF302821FFFFFFFFFFFFFFFFFF302821FF302821FF302821FF302821FF302821FF3028
310
21FF302821FF302821FF302821FF302821FF302821FFFFFFFFFF302821FF302821FF302821FF302821FF302821FF302821FF302821FF302821FF302821FF302821FF302821FF302821FF302821FF302821FF302821FF302821FF302821FF302821FFFFFFFFFFFFFFFFFF302821FF302821FF302821FF302821FF302821FF30
310
2821FF302821FF302821FF302821FF302821FFFFFFFFFFFFFFFFFF302821FF302821FF302821FF302821FF302821FF302821FF302821FF302821FF302821FF302821FF302821FF302821FF302821FF302821FF302821FF302821FF302821FF302821FFFFFFFFFFFFFFFFFFFFFFFFFFFFFFFFFFFFFFFFFFFFFFFFFFFFFFFFFF
310
FFFFFFFFFFFFFFFFFFFFFFFFFFFFFFFFFFFFFFFFFFFFFFFFFFFFFFFF302821FF302821FF302821FF302821FF302821FF302821FF302821FF302821FF302821FF302821FF302821FF302821FF302821FF302821FF302821FF302821FF302821FF302821FFFFFFFFFF302821FF302821FF302821FF302821FF302821FF302821
310
FF302821FF302821FF302821FF302821FF302821FF302821FFFFFFFFFF302821FF302821FF302821FF302821FF302821FF302821FF302821FF302821FF302821FF302821FF302821FF302821FF302821FF302821FF302821FF302821FF302821FF302821FFFFFFFFFF302821FF302821FF302821FF302821FF302821FF3028
310
21FF302821FF302821FF302821FF302821FF302821FF302821FFFFFFFFFF302821FF302821FF302821FF302821FF302821FF302821FF302821FF302821FF302821FF302821FF302821FF302821FF302821FF302821FF302821FF302821FF302821FF302821FFFFFFFFFF302821FF302821FF302821FF302821FF302821FF30
310
2821FF302821FF302821FF302821FF302821FF302821FF302821FFFFFFFFFF302821FF302821FF302821FF302821FF302821FF302821FF302821FF302821FF302821FF302821FF302821FF302821FF302821FF302821FF302821FF302821FF302821FF302821FFFFFFFFFF302821FF302821FF302821FF302821FF302821FF
310
302821FF302821FF302821FF302821FF302821FF302821FF302821FFFFFFFFFF302821FF302821FF302821FF302821FF302821FF302821FF302821FF302821FF302821FF302821FF302821FF302821FF302821FF302821FF302821FF302821FF302821FF302821FFFFFFFFFF302821FF302821FF302821FF302821FF302821
310
FF302821FF302821FF302821FF302821FF302821FF302821FF302821FFFFFFFFFF302821FF302821FF302821FF302821FF302821FF302821FF302821FF302821FF302821FF302821FF302821FF302821FF302821FF302821FF302821FF302821FF302821FF302821FFFFFFFFFFFFFFFFFF302821FF302821FF302821FF3028
310
21FF302821FF302821FF302821FF302821FF302821FF302821FF302821FFFFFFFFFF302821FF302821FF302821FF302821FF302821FF302821FF302821FF302821FF302821FF302821FF302821FF302821FF302821FF302821FF302821FF302821FF302821FF302821FF302821FFFFFFFFFFFFFFFFFFFFFFFFFFFFFFFFFFFF
310
FFFFFFFFFFFFFFFFFFFFFFFFFFFFFFFFFFFFFFFFFFFFFFFFFFFFFFFFFFFFFF302821FF302821FF302821FF302821FF302821FF302821FF302821FF302821FF302821FF302821FF302821FF302821FF302821FF302821FF302821FF302821FF302821FF302821FF302821FF302821FF302821FF302821FF302821FF302821FF
310
302821FF302821FF302821FF302821FF302821FF302821FF302821FF302821FF302821FF302821FF302821FF302821FF302821FF302821FF302821FF302821FF302821FF302821FF
102
{BLKREFS
331
960
102
}
1001
ACAD
1000
DesignCenter Data
1002
{
1070
     1
1070
     4
1002
}
  0
BLOCK_RECORD
  5
8EA
330
1
100
AcDbSymbolTableRecord
100
AcDbBlockTableRecord
  2
ハンドル
340
0
310
28000000200000002000000001002000000000000010000001000000010000000000000000000000302821FF302821FF302821FF302821FF302821FF302821FF302821FF302821FF302821FF302821FF302821FF302821FF302821FF302821FF302821FF302821FF302821FF302821FF302821FF302821FF302821FF302821
310
FF302821FF302821FF302821FF302821FF302821FF302821FF302821FF302821FF302821FF302821FF302821FF302821FF302821FF302821FF302821FF302821FF302821FF302821FF302821FFFFFFFFFFFFFFFFFFFFFFFFFFFFFFFFFFFFFFFFFFFFFFFFFFFFFFFFFFFFFFFFFFFFFFFFFFFFFFFFFFFFFFFFFFFFFFFFFFFFFF
310
FFFFFFFFFFFF302821FF302821FF302821FF302821FF302821FF302821FF302821FF302821FF302821FF302821FF302821FF302821FF302821FF302821FF302821FF302821FF302821FF302821FFFFFFFFFF302821FF302821FF302821FF302821FF302821FF302821FF302821FF302821FF302821FF302821FF302821FF30
310
2821FFFFFFFFFF302821FF302821FF302821FF302821FF302821FF302821FF302821FF302821FF302821FF302821FF302821FF302821FF302821FF302821FF302821FF302821FF302821FF302821FFFFFFFFFF302821FF302821FF302821FF302821FF302821FF302821FF302821FF302821FF302821FF302821FF302821FF
310
302821FFFFFFFFFF302821FF302821FF302821FF302821FF302821FF302821FF302821FF302821FF302821FF302821FF302821FF302821FF302821FF302821FF302821FF302821FF302821FF302821FFFFFFFFFF302821FF302821FF302821FF302821FF302821FF302821FF302821FF302821FF302821FF302821FF302821
310
FF302821FFFFFFFFFF302821FF302821FF302821FF302821FF302821FF302821FF302821FF302821FF302821FF302821FF302821FF302821FF302821FF302821FF302821FF302821FF302821FF302821FFFFFFFFFF302821FF302821FF302821FF302821FF302821FF302821FF302821FF302821FF302821FF302821FF3028
310
21FF302821FFFFFFFFFF302821FF302821FF302821FF302821FF302821FF302821FF302821FF302821FF302821FF302821FF302821FF302821FF302821FF302821FF302821FF302821FF302821FF302821FFFFFFFFFF302821FF302821FF302821FF302821FF302821FF302821FF302821FF302821FF302821FF302821FF30
310
2821FF302821FFFFFFFFFF302821FF302821FF302821FF302821FF302821FF302821FF302821FF302821FF302821FF302821FF302821FF302821FF302821FF302821FF302821FF302821FF302821FF302821FFFFFFFFFF302821FF302821FF302821FF302821FF302821FF302821FF302821FF302821FF302821FF302821FF
310
302821FF302821FFFFFFFFFF302821FF302821FF302821FF302821FF302821FF302821FF302821FF302821FF302821FF302821FF302821FF302821FF302821FF302821FF302821FF302821FF302821FF302821FFFFFFFFFF302821FF302821FF302821FF302821FF302821FF302821FF302821FF302821FF302821FF302821
310
FF302821FF302821FFFFFFFFFF302821FF302821FF302821FF302821FF302821FF302821FF302821FF302821FF302821FF302821FF302821FF302821FF302821FF302821FF302821FF302821FF302821FF302821FFFFFFFFFF302821FF302821FF302821FF302821FF302821FF302821FF302821FF302821FF302821FF3028
310
21FF302821FF302821FFFFFFFFFF302821FF302821FF302821FF302821FF302821FF302821FF302821FF302821FF302821FF302821FF302821FF302821FF302821FF302821FF302821FF302821FF302821FF302821FFFFFFFFFF302821FF302821FF302821FF302821FF302821FF302821FF302821FF302821FF302821FF30
310
2821FF302821FF302821FFFFFFFFFF302821FF302821FF302821FF302821FF302821FF302821FF302821FF302821FF302821FF302821FF302821FF302821FF302821FF302821FF302821FF302821FF302821FF302821FFFFFFFFFF302821FF302821FF302821FF302821FF302821FF302821FF302821FF302821FF302821FF
310
302821FF302821FF302821FFFFFFFFFF302821FF302821FF302821FF302821FF302821FF302821FF302821FF302821FF302821FF302821FF302821FF302821FF302821FF302821FF302821FF302821FF302821FF302821FFFFFFFFFF302821FF302821FF302821FF302821FF302821FF302821FF302821FF302821FF302821
310
FF302821FF302821FF302821FFFFFFFFFF302821FF302821FF302821FF302821FF302821FF302821FF302821FF302821FF302821FF302821FF302821FF302821FF302821FF302821FF302821FF302821FF302821FF302821FFFFFFFFFF302821FF302821FF302821FF302821FF302821FF302821FF302821FF302821FF3028
310
21FF302821FF302821FF302821FFFFFFFFFF302821FF302821FF302821FF302821FF302821FF302821FF302821FF302821FF302821FF302821FF302821FF302821FF302821FF302821FF302821FF302821FF302821FF302821FFFFFFFFFF302821FF302821FF302821FF302821FF302821FF302821FF302821FF302821FF30
310
2821FF302821FF302821FF302821FFFFFFFFFF302821FF302821FF302821FF302821FF302821FF302821FF302821FF302821FF302821FF302821FF302821FF302821FF302821FF302821FF302821FF302821FF302821FF302821FFFFFFFFFF302821FF302821FF302821FF302821FF302821FF302821FF302821FF302821FF
310
302821FF302821FF302821FF302821FFFFFFFFFF302821FF302821FF302821FF302821FF302821FF302821FF302821FF302821FF302821FF302821FF302821FF302821FF302821FF302821FF302821FF302821FF302821FF302821FFFFFFFFFF302821FF302821FF302821FF302821FF302821FF302821FF302821FF302821
310
FF302821FF302821FF302821FF302821FFFFFFFFFF302821FF302821FF302821FF302821FF302821FF302821FF302821FF302821FF302821FF302821FF302821FF302821FF302821FF302821FF302821FF302821FF302821FF302821FFFFFFFFFF302821FF302821FF302821FF302821FF302821FF302821FF302821FF3028
310
21FF302821FF302821FF302821FF302821FFFFFFFFFF302821FF302821FF302821FF302821FF302821FF302821FF302821FF302821FF302821FF302821FF302821FF302821FF302821FF302821FF302821FF302821FF302821FF302821FFFFFFFFFF302821FF302821FF302821FF302821FF302821FF302821FF302821FF30
310
2821FF302821FF302821FF302821FF302821FFFFFFFFFF302821FF302821FF302821FF302821FF302821FF302821FF302821FF302821FF302821FF302821FF302821FF302821FF302821FF302821FF302821FF302821FF302821FF302821FFFFFFFFFF302821FF302821FF302821FF302821FF302821FF302821FF302821FF
310
302821FF302821FF302821FF302821FF302821FFFFFFFFFF302821FF302821FF302821FF302821FF302821FF302821FF302821FF302821FF302821FF302821FF302821FF302821FF302821FF302821FF302821FF302821FF302821FF302821FFFFFFFFFF302821FF302821FF302821FF302821FF302821FF302821FF302821
310
FF302821FF302821FF302821FF302821FF302821FFFFFFFFFF302821FF302821FF302821FF302821FF302821FF302821FF302821FF302821FF302821FF302821FF302821FFFFFFFFFFFFFFFFFFFFFFFFFFFFFFFFFFFFFFFFFFFFFFFFFFFFFFFFFFFFFFFFFF302821FF302821FF302821FF302821FF302821FF302821FF3028
310
21FF302821FF302821FF302821FF302821FF302821FFFFFFFFFFFFFFFFFFFFFFFFFFFFFFFFFFFFFFFFFFFFFFFFFFFFFFFFFFFFFFFFFF302821FF302821FF302821FF302821FFFFFFFFFF302821FF302821FF302821FF302821FF302821FF302821FF302821FF302821FF302821FF302821FF302821FF302821FF302821FF30
310
2821FF302821FF302821FF302821FF302821FF302821FF302821FF302821FF302821FF302821FF302821FF302821FF302821FFFFFFFFFF302821FF302821FF302821FF302821FFFFFFFFFF302821FF302821FF302821FF302821FF302821FF302821FF302821FF302821FF302821FF302821FF302821FF302821FF302821FF
310
302821FF302821FF302821FF302821FF302821FF302821FF302821FF302821FF302821FF302821FF302821FF302821FF302821FFFFFFFFFF302821FF302821FF302821FF302821FFFFFFFFFF302821FF302821FF302821FF302821FF302821FF302821FF302821FF302821FF302821FF302821FF302821FF302821FF302821
310
FF302821FF302821FF302821FF302821FF302821FF302821FF302821FF302821FF302821FF302821FF302821FF302821FF302821FFFFFFFFFF302821FF302821FF302821FF302821FF302821FFFFFFFFFF302821FF302821FF302821FF302821FF302821FF302821FF302821FF302821FF302821FF302821FF302821FF3028
310
21FF302821FF302821FF302821FF302821FF302821FF302821FF302821FF302821FF302821FF302821FF302821FF302821FF302821FFFFFFFFFF302821FF302821FF302821FF302821FF302821FFFFFFFFFF302821FF302821FF302821FF302821FF302821FF302821FF302821FF302821FF302821FFFFFFFFFFFFFFFFFFFF
310
FFFFFFFFFFFFFFFFFFFFFFFFFFFFFF302821FF302821FF302821FF302821FF302821FF302821FF302821FF302821FF302821FFFFFFFFFF302821FF302821FF302821FF302821FF302821FF302821FFFFFFFFFF302821FF302821FF302821FF302821FF302821FF302821FF302821FF302821FFFFFFFFFFFFFFFFFFFFFFFFFF
310
FFFFFFFFFFFFFFFFFFFFFFFFFFFFFFFFFFFFFFFF302821FF302821FF302821FF302821FF302821FF302821FF302821FF302821FFFFFFFFFF302821FF302821FF302821FF302821FF302821FF302821FFFFFFFFFF302821FF302821FF302821FF302821FF302821FF302821FF302821FF302821FFFFFFFFFF302821FF302821
310
FF302821FF302821FF302821FF302821FFFFFFFFFF302821FF302821FF302821FF302821FF302821FF302821FF302821FF302821FFFFFFFFFF302821FF302821FF302821FF302821FF302821FF302821FFFFFFFFFF302821FF302821FF302821FF302821FF302821FF302821FF302821FF302821FFFFFFFFFF302821FF3028
310
21FF302821FF302821FF302821FF302821FFFFFFFFFF302821FF302821FF302821FF302821FF302821FF302821FF302821FF302821FFFFFFFFFF302821FF302821FF302821FF302821FF302821FF302821FFFFFFFFFFFFFFFFFFFFFFFFFFFFFFFFFFFFFFFFFFFFFFFFFFFFFFFFFFFFFFFFFFFFFFFFFFFFFFFFFF302821FF30
310
2821FF302821FF302821FF302821FF302821FFFFFFFFFFFFFFFFFFFFFFFFFFFFFFFFFFFFFFFFFFFFFFFFFFFFFFFFFFFFFFFFFFFFFFFFFFFFFFFFFF302821FF302821FF302821FF302821FF302821FF302821FF302821FF302821FF302821FF302821FF302821FF302821FF302821FF302821FF302821FF302821FF302821FF
310
302821FF302821FF302821FF302821FF302821FF302821FF302821FF302821FF302821FF302821FF302821FF302821FF302821FF302821FF302821FF302821FF302821FF302821FF
102
{BLKREFS
331
961
331
982
102
}
1001
ACAD
1000
DesignCenter Data
1002
{
1070
     1
1070
     4
1002
}
  0
BLOCK_RECORD
  5
900
102
{ACAD_XDICTIONARY
360
901
102
}
330
1
100
AcDbSymbolTableRecord
100
AcDbBlockTableRecord
  2
BN-30N本体(納入品図面用)
340
0
310
28000000200000002000000001002000000000000010000001000000010000000000000000000000302821FF302821FF302821FF302821FF302821FF302821FF302821FF302821FF302821FF302821FF302821FF302821FF302821FF302821FF302821FF302821FF302821FF302821FF302821FF302821FF302821FF302821
310
FF302821FF302821FF302821FF302821FF302821FF302821FF302821FF302821FF302821FF302821FF302821FF302821FF302821FF302821FF302821FF302821FF302821FF302821FF302821FF302821FF302821FF302821FF302821FF302821FF302821FF302821FF302821FF302821FF302821FF302821FF302821FF3028
310
21FF302821FF302821FF302821FF302821FF302821FF302821FF302821FF302821FF302821FF302821FF302821FF302821FF302821FF302821FF302821FF302821FF302821FF302821FF302821FF302821FF302821FF302821FF302821FF302821FF302821FF302821FF302821FF302821FF302821FF302821FF302821FF30
310
2821FF302821FF302821FF302821FF302821FF302821FF302821FF302821FF302821FF302821FF302821FF302821FF302821FF302821FF302821FF302821FF302821FF302821FF302821FF302821FF302821FF302821FF302821FF302821FF302821FF302821FF302821FF302821FF302821FF302821FF302821FF302821FF
310
302821FF302821FF302821FF302821FF302821FF302821FF302821FF302821FF302821FF302821FF302821FF302821FFFFFFFFFFFFFFFFFFFFFFFFFFFFFFFFFF302821FF302821FF302821FF302821FF302821FF302821FF302821FF302821FF302821FF302821FF302821FF302821FF302821FF302821FF302821FF302821
310
FF302821FF302821FF302821FF302821FF302821FF302821FF302821FF302821FF302821FF302821FF302821FF302821FFFFFFFFFF302821FF302821FFFFFFFFFFFFFFFFFFFFFFFFFFFFFFFFFFFFFFFFFFFFFFFFFFFFFFFFFFFFFFFFFFFFFFFFFF302821FF302821FF302821FF302821FF302821FF302821FF302821FF3028
310
21FF302821FF302821FF302821FF302821FF302821FF302821FF302821FF302821FF302821FF302821FF302821FF302821FFFFFFFFFF302821FF302821FFFFFFFFFF302821FF302821FF302821FF302821FF302821FF302821FF302821FFFFFFFFFFFFFFFFFFFFFFFFFFFFFFFFFFFFFFFFFF302821FF302821FF302821FF30
310
2821FF302821FF302821FF302821FF302821FF302821FFFFFFFFFFFFFFFFFFFFFFFFFFFFFFFFFF302821FF302821FF302821FFFFFFFFFF302821FF302821FFFFFFFFFF302821FF302821FF302821FF302821FF302821FF302821FF302821FFFFFFFFFF302821FFFFFFFFFF302821FFFFFFFFFFFFFFFFFF302821FF302821FF
310
302821FF302821FF302821FF302821FF302821FFFFFFFFFFFFFFFFFFFFFFFFFFFFFFFFFFFFFFFFFF302821FF302821FF302821FFFFFFFFFF302821FF302821FFFFFFFFFF302821FF302821FF302821FF302821FF302821FF302821FF302821FFFFFFFFFF302821FFFFFFFFFF302821FF302821FFFFFFFFFFFFFFFFFFFFFFFF
310
FFFFFFFFFFFFFFFFFFFFFFFFFFFFFFFFFFFFFFFFFF302821FFFFFFFFFFFFFFFFFFFFFFFFFFFFFFFFFFFFFFFFFF302821FF302821FFFFFFFFFF302821FF302821FFFFFFFFFF302821FF302821FF302821FF302821FF302821FF302821FF302821FFFFFFFFFF302821FFFFFFFFFF302821FF302821FFFFFFFFFF302821FF3028
310
21FF302821FF302821FF302821FF302821FFFFFFFFFF302821FFFFFFFFFFFFFFFFFFFFFFFFFFFFFFFFFFFFFFFFFF302821FF302821FFFFFFFFFF302821FF302821FFFFFFFFFFFFFFFFFFFFFFFFFFFFFFFFFFFFFFFFFFFFFFFFFFFFFFFFFFFFFFFFFFFFFFFFFF302821FFFFFFFFFF302821FF302821FFFFFFFFFF302821FF30
310
2821FF302821FF302821FF302821FF302821FFFFFFFFFF302821FFFFFFFFFFFFFFFFFFFFFFFFFFFFFFFFFFFFFFFFFF302821FF302821FFFFFFFFFF302821FF302821FFFFFFFFFFFFFFFFFF5F7F00FF5F7F00FF5F7F00FF5F7F00FF5F7F00FFFFFFFFFFFFFFFFFF302821FFFFFFFFFF302821FF302821FFFFFFFFFF302821FF
310
302821FF302821FF302821FF302821FF302821FFFFFFFFFF302821FFFFFFFFFFFFFFFFFFFFFFFFFFFFFFFFFFFFFFFFFF302821FF302821FFFFFFFFFF302821FF302821FFFFFFFFFFFFFFFFFF5F7F00FF5F7F00FF5F7F00FF5F7F00FF5F7F00FFFFFFFFFFFFFFFFFF302821FFFFFFFFFF302821FF302821FFFFFFFFFF302821
310
FF302821FF302821FF302821FF302821FF302821FFFFFFFFFF302821FFFFFFFFFFFFFFFFFFFFFFFFFFFFFFFFFFFFFFFFFF302821FF302821FFFFFFFFFF302821FF302821FF302821FFFFFFFFFF5F7F00FF5F7F00FF5F7F00FF5F7F00FF5F7F00FFFFFFFFFFFFFFFFFF302821FFFFFFFFFF302821FF302821FFFFFFFFFF3028
310
21FF302821FF302821FF302821FF302821FF302821FFFFFFFFFF302821FFFFFFFFFFFFFFFFFFFFFFFFFFFFFFFFFFFFFFFFFF302821FF302821FFFFFFFFFF302821FF302821FF302821FFFFFFFFFF5F7F00FF5F7F00FF5F7F00FF5F7F00FF5F7F00FFFFFFFFFFFFFFFFFF302821FFFFFFFFFF302821FF302821FFFFFFFFFF30
310
2821FF302821FF302821FF302821FF302821FF302821FFFFFFFFFF302821FFFFFFFFFFFFFFFFFFFFFFFFFFFFFFFFFFFFFFFFFF302821FF302821FFFFFFFFFF302821FF302821FFFFFFFFFFFFFFFFFF5F7F00FF5F7F00FF5F7F00FF5F7F00FF5F7F00FFFFFFFFFFFFFFFFFF302821FFFFFFFFFF302821FF302821FFFFFFFFFF
310
302821FF302821FF302821FF302821FF302821FF302821FFFFFFFFFF302821FFFFFFFFFFFFFFFFFFFFFFFFFFFFFFFFFFFFFFFFFF302821FF302821FFFFFFFFFF302821FF302821FFFFFFFFFFFFFFFFFFFFFFFFFFFFFFFFFFFFFFFFFFFFFFFFFFFFFFFFFFFFFFFFFFFFFFFFFF302821FFFFFFFFFF302821FF302821FFFFFFFF
310
FF302821FF302821FF302821FF302821FF302821FF302821FFFFFFFFFF302821FFFFFFFFFFFFFFFFFFFFFFFFFFFFFFFFFFFFFFFFFF302821FF302821FFFFFFFFFF302821FF302821FFFFFFFFFF302821FF302821FF302821FF302821FF302821FF302821FF302821FFFFFFFFFF302821FFFFFFFFFF302821FF302821FFFFFF
310
FFFF302821FF302821FF302821FF302821FF302821FF302821FFFFFFFFFF302821FFFFFFFFFFFFFFFFFFFFFFFFFFFFFFFFFFFFFFFFFF302821FF302821FFFFFFFFFF302821FF302821FFFFFFFFFF302821FF302821FF302821FF302821FF302821FF302821FF302821FFFFFFFFFF302821FFFFFFFFFF302821FF302821FFFF
310
FFFFFF302821FF302821FF302821FF302821FF302821FF302821FFFFFFFFFF302821FFFFFFFFFFFFFFFFFFFFFFFFFFFFFFFFFFFFFFFFFF302821FF302821FFFFFFFFFF302821FF302821FFFFFFFFFF302821FF302821FF302821FF302821FF302821FF302821FF302821FFFFFFFFFF302821FFFFFFFFFF302821FF302821FF
310
FFFFFFFFFFFFFFFFFFFFFFFFFFFFFFFFFFFFFFFFFFFFFFFFFFFFFFFFFFFFFFFFFFFFFFFFFFFFFFFFFFFFFFFFFFFFFFFFFFFFFFFF302821FF302821FF302821FFFFFFFFFF302821FF302821FFFFFFFFFF302821FF302821FF302821FF302821FF302821FFFFFFFFFFFFFFFFFFFFFFFFFF302821FFFFFFFFFFFFFFFFFFFFFFFF
310
FFFFFFFFFF302821FF302821FF302821FF302821FF302821FF302821FF302821FF302821FFFFFFFFFFFFFFFFFFFFFFFFFFFFFFFFFF302821FF302821FF302821FFFFFFFFFF302821FF302821FFFFFFFFFF302821FF302821FFFFFFFFFFFFFFFFFFFFFFFFFF302821FF302821FF302821FFFFFFFFFFFFFFFFFF302821FF3028
310
21FF302821FF302821FF302821FF302821FF302821FF302821FF302821FF302821FF302821FF302821FF302821FF302821FF302821FF302821FF302821FF302821FFFFFFFFFFFFFFFFFFFFFFFFFFFFFFFFFFFFFFFFFFFFFFFFFF302821FF302821FF302821FF302821FF302821FF302821FFFFFFFFFF302821FF302821FF30
310
2821FF302821FF302821FF302821FF302821FF302821FF302821FF302821FF302821FF302821FF302821FF302821FF302821FF302821FF302821FF302821FF302821FF302821FF302821FF302821FF302821FFFFFFFFFFFFFFFFFF302821FF302821FF302821FF302821FF302821FF302821FFFFFFFFFF302821FF302821FF
310
302821FF302821FF302821FF302821FF302821FF302821FF302821FF302821FF302821FF302821FF302821FF302821FF302821FF302821FF302821FF302821FF302821FF302821FF302821FF302821FF302821FF302821FFFFFFFFFFFFFFFFFFFFFFFFFFFFFFFFFFFFFFFFFFFFFFFFFFFFFFFFFFFFFFFFFF302821FF302821
310
FF302821FF302821FF302821FF302821FF302821FF302821FF302821FF302821FF302821FF302821FF302821FF302821FF302821FF302821FF302821FF302821FF302821FF302821FF302821FF302821FF302821FF302821FFFFFFFFFF302821FF302821FF302821FF302821FF302821FFFFFFFFFF302821FF302821FF3028
310
21FF302821FF302821FF302821FF302821FF302821FF302821FF302821FF302821FF302821FF302821FF302821FF302821FF302821FF302821FF302821FF302821FF302821FF302821FF302821FF302821FF302821FF302821FFFFFFFFFFFFFFFFFFFFFFFFFFFFFFFFFFFFFFFFFFFFFFFFFFFFFFFFFF302821FF302821FF30
310
2821FF302821FF302821FF302821FF302821FF302821FF302821FF302821FF302821FF302821FF302821FF302821FF302821FF302821FF302821FF302821FF302821FF302821FF302821FF302821FF302821FF302821FF302821FFFFFFFFFFFFFFFFFF302821FF302821FF302821FF302821FF302821FF302821FF302821FF
310
302821FF302821FF302821FF302821FF302821FF302821FF302821FF302821FF302821FF302821FF302821FF302821FF302821FF302821FF302821FF302821FF302821FF302821FF302821FF302821FF302821FF302821FF302821FF302821FF302821FF302821FF302821FF302821FF302821FF302821FF302821FF302821
310
FF302821FF302821FF302821FF302821FF302821FF302821FF302821FF302821FF302821FF302821FF302821FF302821FF302821FF302821FF302821FF302821FF302821FF302821FF302821FF302821FF302821FF302821FF302821FF302821FF302821FF302821FF302821FF302821FF302821FF302821FF302821FF3028
310
21FF302821FF302821FF302821FF302821FF302821FF302821FF302821FF302821FF302821FF302821FF302821FF302821FF302821FF302821FF302821FF302821FF302821FF302821FF302821FF302821FF302821FF302821FF302821FF302821FF302821FF302821FF302821FF302821FF302821FF302821FF302821FF30
310
2821FF302821FF302821FF302821FF302821FF302821FF302821FF302821FF302821FF302821FF302821FF302821FF302821FF302821FF302821FF302821FF302821FF302821FF302821FF302821FF302821FF302821FF302821FF302821FF302821FF302821FF302821FF302821FF302821FF302821FF302821FF302821FF
310
302821FF302821FF302821FF302821FF302821FF302821FF302821FF302821FF302821FF302821FF302821FF302821FF302821FF302821FF302821FF302821FF302821FF302821FF
102
{BLKREFS
331
962
102
}
1001
ACAD
1000
DesignCenter Data
1002
{
1070
     1
1070
     4
1002
}
  0
BLOCK_RECORD
  5
95D
330
1
100
AcDbSymbolTableRecord
100
AcDbBlockTableRecord
  2
BN-30外観
340
0
310
28000000200000002000000001002000000000000010000001000000010000000000000000000000302821FF302821FF302821FF302821FF302821FF302821FF302821FF302821FF302821FF302821FF302821FF302821FF302821FF302821FF302821FF302821FF302821FF302821FF302821FF302821FF302821FF302821
310
FF302821FF302821FF302821FF302821FF302821FF302821FF302821FF302821FF302821FF302821FF302821FF302821FF302821FF302821FF302821FF302821FF302821FF302821FF302821FF302821FF302821FF302821FF302821FF302821FF302821FF302821FF302821FF302821FF302821FF302821FF302821FF3028
310
21FF302821FF302821FF302821FF302821FF302821FF302821FF302821FF302821FF302821FF302821FF302821FF302821FF302821FF302821FF302821FF302821FF302821FF302821FF302821FF302821FF302821FF302821FF302821FF302821FF302821FF302821FF302821FF302821FF302821FF302821FF302821FF30
310
2821FF302821FFFFFFFFFFFFFFFFFFFFFFFFFFFFFFFFFFFFFFFFFFFFFFFFFFFFFFFFFF302821FF302821FF302821FF302821FF302821FF302821FF302821FF302821FF302821FF302821FF302821FF302821FF302821FF302821FF302821FF302821FF302821FF302821FF302821FF302821FF302821FF302821FF302821FF
310
302821FF302821FFFFFFFFFF302821FF302821FF302821FF302821FF302821FFFFFFFFFFFFFFFFFF302821FF302821FFFFFFFFFFFFFFFFFFFFFFFFFFFFFFFFFFFFFFFFFFFFFFFFFFFFFFFFFFFFFFFFFFFFFFFFFFFFFFFFFFFFFFFFFFFFFFFFFFFFFFFFFFFFFFFFFF302821FF302821FF302821FF302821FF302821FF302821
310
FF302821FF302821FFFFFFFFFF302821FF302821FF302821FF302821FF302821FF302821FFFFFFFFFF302821FF302821FFFFFFFFFF302821FF302821FF302821FF302821FFFFFFFFFFFFFFFFFFFFFFFFFF302821FF302821FF302821FF302821FF302821FFFFFFFFFFFFFFFFFFFFFFFFFFFFFFFFFF302821FF302821FF3028
310
21FF302821FF302821FFFFFFFFFF302821FF302821FF302821FF302821FF302821FFFFFFFFFFFFFFFFFF302821FF302821FFFFFFFFFF302821FF302821FF302821FF302821FFFFFFFFFFFFFFFFFFFFFFFFFF302821FF302821FF302821FF302821FF302821FFFFFFFFFFFFFFFFFF302821FFFFFFFFFFFFFFFFFFFFFFFFFFFF
310
FFFFFFFFFFFFFFFFFFFFFFFFFFFFFFFFFFFFFFFFFFFFFFFFFFFFFFFFFFFFFFFFFFFFFFFFFFFFFFFFFFFFFF302821FF302821FFFFFFFFFFFFFFFFFFFFFFFFFFFFFFFFFFFFFFFFFFFFFFFFFFFFFFFFFFFFFFFFFF302821FF302821FF302821FF302821FF302821FFFFFFFFFFFFFFFFFF302821FFFFFFFFFF302821FF302821FF
310
302821FF302821FFFFFFFFFFFFFFFFFF302821FF302821FF302821FF302821FF302821FFFFFFFFFFFFFFFFFF302821FF302821FFFFFFFFFFFFFFFFFF302821FF302821FF302821FFFFFFFFFFFFFFFFFFFFFFFFFFFFFFFFFFFFFFFFFFFFFFFFFFFFFFFFFFFFFFFFFFFFFFFFFFFFFFFFFF302821FFFFFFFFFF302821FF302821
310
FF302821FF302821FFFFFFFFFFFFFFFFFF302821FF302821FF302821FF302821FF302821FFFFFFFFFFFFFFFFFF302821FF302821FFFFFFFFFF302821FF302821FF302821FF302821FFFFFFFFFFFFFFFFFFFFFFFFFFFFFFFFFF5F7F00FF5F7F00FF5F7F00FFFFFFFFFFFFFFFFFFFFFFFFFF302821FFFFFFFFFF302821FF3028
310
21FF302821FF302821FFFFFFFFFFFFFFFFFF302821FF302821FF302821FF302821FF302821FF302821FFFFFFFFFF302821FF302821FFFFFFFFFF302821FF302821FF302821FF302821FFFFFFFFFFFFFFFFFFFFFFFFFFFFFFFFFF5F7F00FF5F7F00FF5F7F00FFFFFFFFFFFFFFFFFFFFFFFFFF302821FFFFFFFFFF302821FF30
310
2821FF302821FF302821FFFFFFFFFFFFFFFFFF302821FF302821FF302821FF302821FF302821FF302821FFFFFFFFFF302821FF302821FFFFFFFFFFFFFFFFFF302821FF302821FF302821FFFFFFFFFFFFFFFFFFFFFFFFFFFFFFFFFF5F7F00FF5F7F00FF5F7F00FFFFFFFFFFFFFFFFFFFFFFFFFF302821FFFFFFFFFF302821FF
310
302821FF302821FF302821FFFFFFFFFFFFFFFFFF302821FF302821FF302821FF302821FF302821FFFFFFFFFFFFFFFFFF302821FF302821FFFFFFFFFFFFFFFFFFFFFFFFFFFFFFFFFFFFFFFFFFFFFFFFFFFFFFFFFFFFFFFFFFFFFFFFFFFFFFFFFFFFFFFFFFFFFFFFFFFFFFFFFFFFFFFFFFFFFFFFFF302821FFFFFFFFFF302821
310
FF302821FF302821FF302821FFFFFFFFFFFFFFFFFF302821FF302821FF302821FF302821FF302821FFFFFFFFFFFFFFFFFF302821FF302821FFFFFFFFFFFFFFFFFF302821FF302821FF302821FFFFFFFFFFFFFFFFFFFFFFFFFF302821FF302821FF302821FF302821FF302821FFFFFFFFFFFFFFFFFF302821FFFFFFFFFFFFFF
310
FFFFFFFFFFFFFFFFFFFFFFFFFFFFFFFFFFFFFFFFFFFFFFFFFFFFFFFFFFFFFFFFFFFFFFFFFFFFFFFFFFFFFFFFFFFFFFFFFFFF302821FF302821FFFFFFFFFF302821FF302821FF302821FF302821FFFFFFFFFFFFFFFFFFFFFFFFFF302821FF302821FF302821FFFFFFFFFFFFFFFFFFFFFFFFFFFFFFFFFFFFFFFFFFFFFFFFFF30
310
2821FF302821FF302821FF302821FF302821FFFFFFFFFF302821FF302821FF302821FF302821FF302821FFFFFFFFFFFFFFFFFF302821FF302821FFFFFFFFFF302821FF302821FF302821FF302821FFFFFFFFFFFFFFFFFFFFFFFFFFFFFFFFFFFFFFFFFFFFFFFFFF302821FF302821FFFFFFFFFFFFFFFFFF302821FF302821FF
310
302821FF302821FF302821FF302821FF302821FFFFFFFFFF302821FF302821FF302821FF302821FF302821FF302821FFFFFFFFFF302821FF302821FF302821FFFFFFFFFFFFFFFFFFFFFFFFFFFFFFFFFFFFFFFFFFFFFFFFFFFFFFFFFFFFFFFFFFFFFFFFFFFFFFFFFFFFFFFFFFFFFFFFFFFFFFFFFF302821FF302821FF302821
310
FF302821FF302821FF302821FF302821FF302821FFFFFFFFFF302821FF302821FF302821FF302821FF302821FFFFFFFFFFFFFFFFFF302821FF302821FF302821FF302821FF302821FF302821FF302821FF302821FF302821FF302821FFFFFFFFFFFFFFFFFFFFFFFFFFFFFFFFFFFFFFFFFFFFFFFFFFFFFFFFFF302821FF3028
310
21FF302821FF302821FF302821FF302821FF302821FFFFFFFFFFFFFFFFFFFFFFFFFFFFFFFFFFFFFFFFFFFFFFFFFFFFFFFFFF302821FF302821FF302821FF302821FF302821FF302821FF302821FF302821FF302821FF302821FF302821FFFFFFFFFF302821FF302821FF302821FF302821FF302821FFFFFFFFFF302821FF30
310
2821FF302821FF302821FF302821FF302821FF302821FF302821FF302821FF302821FF302821FF302821FF302821FF302821FF302821FF302821FF302821FF302821FF302821FF302821FF302821FF302821FF302821FF302821FF302821FFFFFFFFFF302821FF302821FF302821FF302821FF302821FFFFFFFFFF302821FF
310
302821FF302821FF302821FF302821FF302821FF302821FF302821FF302821FF302821FF302821FF302821FF302821FF302821FF302821FF302821FF302821FF302821FF302821FF302821FF302821FF302821FF302821FF302821FF302821FFFFFFFFFF302821FF302821FF302821FF302821FF302821FFFFFFFFFF302821
310
FF302821FF302821FF302821FF302821FF302821FF302821FF302821FF302821FF302821FF302821FF302821FF302821FF302821FF302821FF302821FF302821FF302821FF302821FF302821FF302821FF302821FF302821FF302821FF302821FFFFFFFFFF302821FF302821FF302821FF302821FF302821FFFFFFFFFF3028
310
21FF302821FF302821FF302821FF302821FF302821FF302821FF302821FF302821FF302821FF302821FF302821FF302821FF302821FF302821FF302821FF302821FF302821FF302821FF302821FF302821FF302821FF302821FF302821FF302821FFFFFFFFFF302821FF302821FF302821FF302821FF302821FFFFFFFFFF30
310
2821FF302821FF302821FF302821FF302821FF302821FF302821FF302821FF302821FF302821FF302821FF302821FF302821FF302821FF302821FF302821FF302821FF302821FF302821FF302821FF302821FF302821FF302821FF302821FF302821FFFFFFFFFF302821FF302821FF302821FF302821FF302821FFFFFFFFFF
310
302821FF302821FF302821FF302821FF302821FF302821FF302821FF302821FF302821FF302821FF302821FF302821FF302821FF302821FF302821FF302821FF302821FF302821FF302821FF302821FF302821FF302821FF302821FF302821FF302821FFFFFFFFFF302821FF302821FF302821FF302821FF302821FFFFFFFF
310
FF302821FF302821FF302821FF302821FF302821FF302821FF302821FF302821FF302821FF302821FF302821FF302821FF302821FF302821FF302821FF302821FF302821FF302821FF302821FF302821FF302821FF302821FF302821FFFFFFFFFFFFFFFFFFFFFFFFFF302821FF302821FF302821FF302821FF302821FFFFFF
310
FFFFFFFFFFFFFFFFFFFFFFFFFFFF302821FF302821FF302821FF302821FF302821FF302821FF302821FF302821FF302821FF302821FF302821FF302821FF302821FF302821FF302821FF302821FF302821FF302821FF302821FF302821FFFFFFFFFF302821FF302821FF302821FF302821FF302821FF302821FF302821FF30
310
2821FF302821FF302821FFFFFFFFFF302821FF302821FF302821FF302821FF302821FF302821FF302821FF302821FF302821FF302821FF302821FF302821FF302821FF302821FF302821FF302821FF302821FF302821FF302821FF302821FFFFFFFFFF302821FF302821FF302821FFFFFFFFFFFFFFFFFFFFFFFFFF302821FF
310
302821FF302821FFFFFFFFFF302821FF302821FF302821FF302821FF302821FF302821FF302821FF302821FF302821FF302821FF302821FF302821FF302821FF302821FF302821FF302821FF302821FF302821FF302821FF302821FF302821FFFFFFFFFF302821FF302821FF302821FFFFFFFFFF302821FFFFFFFFFFFFFFFF
310
FF302821FF302821FFFFFFFFFF302821FF302821FF302821FF302821FF302821FF302821FF302821FF302821FF302821FF302821FF302821FF302821FF302821FF302821FF302821FF302821FF302821FF302821FF302821FF302821FF302821FFFFFFFFFFFFFFFFFFFFFFFFFFFFFFFFFFFFFFFFFF302821FF302821FFFFFF
310
FFFFFFFFFFFFFFFFFFFFFFFFFFFF302821FF302821FF302821FF302821FF302821FF302821FF302821FF302821FF302821FF302821FF302821FF302821FF302821FF302821FF302821FF302821FF302821FF302821FF302821FF302821FF302821FF302821FF302821FF302821FF302821FF302821FF302821FF302821FF30
310
2821FF302821FF302821FF302821FF302821FF302821FF302821FF302821FF302821FF302821FF302821FF302821FF302821FF302821FF302821FF302821FF302821FF302821FF302821FF302821FF302821FF302821FF302821FF302821FF302821FF302821FF302821FF302821FF302821FF302821FF302821FF302821FF
310
302821FF302821FF302821FF302821FF302821FF302821FF302821FF302821FF302821FF302821FF302821FF302821FF302821FF302821FF302821FF302821FF302821FF302821FF
1001
ACAD
1000
DesignCenter Data
1002
{
1070
     1
1070
     4
1002
}
  0
BLOCK_RECORD
  5
98E
330
1
100
AcDbSymbolTableRecord
100
AcDbBlockTableRecord
  2
32S
340
0
310
2800000020000000200000000100080000000000000400000000000000000000000000000000000000000000000080000080000000808000800000008000800080800000C0C0C000C0DCC000F0CAA6000020400000206000002080000020A0000020C0000020E00000400000004020000040400000406000004080000040A0
310
000040C0000040E00000600000006020000060400000606000006080000060A0000060C0000060E00000800000008020000080400000806000008080000080A0000080C0000080E00000A0000000A0200000A0400000A0600000A0800000A0A00000A0C00000A0E00000C0000000C0200000C0400000C0600000C0800000C0
310
A00000C0C00000C0E00000E0000000E0200000E0400000E0600000E0800000E0A00000E0C00000E0E00040000000400020004000400040006000400080004000A0004000C0004000E00040200000402020004020400040206000402080004020A0004020C0004020E000404000004040200040404000404060004040800040
310
40A0004040C0004040E00040600000406020004060400040606000406080004060A0004060C0004060E00040800000408020004080400040806000408080004080A0004080C0004080E00040A0000040A0200040A0400040A0600040A0800040A0A00040A0C00040A0E00040C0000040C0200040C0400040C0600040C08000
310
40C0A00040C0C00040C0E00040E0000040E0200040E0400040E0600040E0800040E0A00040E0C00040E0E00080000000800020008000400080006000800080008000A0008000C0008000E00080200000802020008020400080206000802080008020A0008020C0008020E00080400000804020008040400080406000804080
310
008040A0008040C0008040E00080600000806020008060400080606000806080008060A0008060C0008060E00080800000808020008080400080806000808080008080A0008080C0008080E00080A0000080A0200080A0400080A0600080A0800080A0A00080A0C00080A0E00080C0000080C0200080C0400080C0600080C0
310
800080C0A00080C0C00080C0E00080E0000080E0200080E0400080E0600080E0800080E0A00080E0C00080E0E000C0000000C0002000C0004000C0006000C0008000C000A000C000C000C000E000C0200000C0202000C0204000C0206000C0208000C020A000C020C000C020E000C0400000C0402000C0404000C0406000C0
310
408000C040A000C040C000C040E000C0600000C0602000C0604000C0606000C0608000C060A000C060C000C060E000C0800000C0802000C0804000C0806000C0808000C080A000C080C000C080E000C0A00000C0A02000C0A04000C0A06000C0A08000C0A0A000C0A0C000C0A0E000C0C00000C0C02000C0C04000C0C06000
310
C0C08000C0C0A000F0FBFF00A4A0A000808080000000FF0000FF000000FFFF00FF000000FF00FF00FFFF0000FFFFFF000000000000000000000000000000000000000000000000000000000000000000000000FA00000000000000000000000000000000000000000000000000000000000000FAFAFA000000000000000000
310
0000000000000000000000000000000000000000FA0000FAFA000000000000000000000000000000000000000000000000000000FA00000000FAFA00000000000000000000000000000000000000000000000000FA000000000000FAFA0000000000000000000000000000000000000000000000FA0000000000000000FA00
310
000000000000000000000000000000000000000000FA000000000000000000FAFA0000000000000000000000000000000000000000FA0000000000000000000000FAFA000000000000000000000000000000000000FA00000000000000000000000000FAFA00000000000000000000000000000000FA000000000000000000
310
000000000000FA000000000000000000000000000000FA00000000000000000000000000000000FAFA00000000000000000000000000FA000000000000000000000000000000000000FAFA0000000000000000000000FA0000000000000000000000000000000000000000FAFA000000000000000000FA0000000000000000
310
0000000000000000000000000000FAFA00000000000000FA000000000000000000000000000000000000000000000000FA000000000000FA00000000000000000000000000000000000000000000FAFA00000000000000FA0000000000000000000000000000000000000000FAFA000000000000000000FA00000000000000
310
000000000000000000000000FA0000000000000000000000FA0000000000000000000000000000000000FAFA000000000000000000000000FA000000000000000000000000000000FAFA0000000000000000000000000000FA0000000000000000000000000000FA00000000000000000000000000000000FA000000000000
310
000000000000FAFA0000000000000000000000000000000000FA00000000000000000000FAFA00000000000000000000000000000000000000FA000000000000000000FA000000000000000000000000000000000000000000FA00000000000000FAFA00000000000000000000000000000000000000000000FA0000000000
310
FAFA000000000000000000000000000000000000000000000000FA00000000FA0000000000000000000000000000000000000000000000000000FA0000FAFA000000000000000000000000000000000000000000000000000000FAFAFA0000000000000000000000000000000000000000000000000000000000FA00000000
310
0000000000000000000000000000000000000000000000000000000000000000000000000000000000000000000000000000000000000000
1001
ACAD
1000
DesignCenter Data
1002
{
1070
     1
1070
     4
1002
}
  0
BLOCK_RECORD
  5
C50
102
{ACAD_XDICTIONARY
360
C6F
102
}
330
1
100
AcDbSymbolTableRecord
100
AcDbBlockTableRecord
  2
A$C10BF5334
340
0
1001
ACAD
1000
DesignCenter Data
1002
{
1070
     1
1070
     4
1002
}
  0
BLOCK_RECORD
  5
CFE
330
1
100
AcDbSymbolTableRecord
100
AcDbBlockTableRecord
  2
A$C2B061C63
340
0
1001
ACAD
1000
DesignCenter Data
1002
{
1070
     1
1070
     4
1002
}
  0
BLOCK_RECORD
  5
DDF
330
1
100
AcDbSymbolTableRecord
100
AcDbBlockTableRecord
  2
DC_GROUP_12
340
0
  0
BLOCK_RECORD
  5
DE4
330
1
100
AcDbSymbolTableRecord
100
AcDbBlockTableRecord
  2
DC_GROUP_13
340
0
  0
BLOCK_RECORD
  5
DE9
330
1
100
AcDbSymbolTableRecord
100
AcDbBlockTableRecord
  2
DC_GROUP_14
340
0
  0
BLOCK_RECORD
  5
DEE
330
1
100
AcDbSymbolTableRecord
100
AcDbBlockTableRecord
  2
DC_GROUP_15
340
0
  0
BLOCK_RECORD
  5
DF3
330
1
100
AcDbSymbolTableRecord
100
AcDbBlockTableRecord
  2
DC_GROUP_16
340
0
  0
BLOCK_RECORD
  5
DF8
330
1
100
AcDbSymbolTableRecord
100
AcDbBlockTableRecord
  2
DC_GROUP_17
340
0
  0
BLOCK_RECORD
  5
E26
102
{ACAD_XDICTIONARY
360
E32
102
}
330
1
100
AcDbSymbolTableRecord
100
AcDbBlockTableRecord
  2
A$C7660327E
340
0
1001
ACAD
1000
DesignCenter Data
1002
{
1070
     1
1070
     4
1002
}
  0
BLOCK_RECORD
  5
1003
102
{ACAD_XDICTIONARY
360
1019
102
}
330
1
100
AcDbSymbolTableRecord
100
AcDbBlockTableRecord
  2
A$C558F11B4
340
0
1001
ACAD
1000
DesignCenter Data
1002
{
1070
     1
1070
     4
1002
}
  0
BLOCK_RECORD
  5
111D
330
1
100
AcDbSymbolTableRecord
100
AcDbBlockTableRecord
  2
*D26
340
0
  0
BLOCK_RECORD
  5
132A
102
{ACAD_XDICTIONARY
360
1381
102
}
330
1
100
AcDbSymbolTableRecord
100
AcDbBlockTableRecord
  2
A$C54A35B19
340
0
1001
ACAD
1000
DesignCenter Data
1002
{
1070
     1
1070
     4
1002
}
  0
BLOCK_RECORD
  5
1443
102
{ACAD_XDICTIONARY
360
149A
102
}
330
1
100
AcDbSymbolTableRecord
100
AcDbBlockTableRecord
  2
A$C7FB106B2
340
0
102
{BLKREFS
331
149F
102
}
1001
ACAD
1000
DesignCenter Data
1002
{
1070
     1
1070
     4
1002
}
  0
BLOCK_RECORD
  5
1587
102
{ACAD_XDICTIONARY
360
159A
102
}
330
1
100
AcDbSymbolTableRecord
100
AcDbBlockTableRecord
  2
A$C4AD84F67
340
0
1001
ACAD
1000
DesignCenter Data
1002
{
1070
     1
1070
     4
1002
}
  0
BLOCK_RECORD
  5
163F
102
{ACAD_XDICTIONARY
360
1650
102
}
330
1
100
AcDbSymbolTableRecord
100
AcDbBlockTableRecord
  2
A$C0CB4773F
340
0
102
{BLKREFS
331
1655
102
}
1001
ACAD
1000
DesignCenter Data
1002
{
1070
     1
1070
     4
1002
}
  0
BLOCK_RECORD
  5
17BE
102
{ACAD_XDICTIONARY
360
17D1
102
}
330
1
100
AcDbSymbolTableRecord
100
AcDbBlockTableRecord
  2
A$C1DC04CE0
340
0
102
{BLKREFS
331
17D6
102
}
1001
ACAD
1000
DesignCenter Data
1002
{
1070
     1
1070
     4
1002
}
  0
BLOCK_RECORD
  5
192C
330
1
100
AcDbSymbolTableRecord
100
AcDbBlockTableRecord
  2
*D32
340
0
  0
ENDTAB
  0
ENDSEC
  0
SECTION
  2
BLOCKS
  0
BLOCK
  5
20
330
1F
100
AcDbEntity
  8
0
100
AcDbBlockBegin
  2
*Model_Space
 70
     0
 10
0.0
 20
0.0
 30
0.0
  3
*Model_Space
  1

  0
ENDBLK
  5
21
330
1F
100
AcDbEntity
  8
0
100
AcDbBlockEnd
  0
BLOCK
  5
1C
330
1B
100
AcDbEntity
 67
     1
  8
0
100
AcDbBlockBegin
  2
*Paper_Space
 70
     0
 10
0.0
 20
0.0
 30
0.0
  3
*Paper_Space
  1

  0
ENDBLK
  5
1D
330
1B
100
AcDbEntity
 67
     1
  8
0
100
AcDbBlockEnd
  0
BLOCK
  5
24
330
23
100
AcDbEntity
 67
     1
  8
0
100
AcDbBlockBegin
  2
*Paper_Space0
 70
     0
 10
0.0
 20
0.0
 30
0.0
  3
*Paper_Space0
  1

  0
ENDBLK
  5
25
330
23
100
AcDbEntity
 67
     1
  8
0
100
AcDbBlockEnd
  0
BLOCK
  5
73
330
71
100
AcDbEntity
  8
0
100
AcDbBlockBegin
  2
GENAXEH
 70
     0
 10
0.0
 20
0.0
 30
0.0
  3
GENAXEH
  1

  0
LINE
  5
72
330
71
100
AcDbEntity
  8
0
100
AcDbLine
 10
-1.0
 20
0.0
 30
0.0
 11
1.0
 21
0.0
 31
0.0
  0
ENDBLK
  5
74
330
71
100
AcDbEntity
  8
0
100
AcDbBlockEnd
  0
BLOCK
  5
95
330
91
100
AcDbEntity
  8
0
100
AcDbBlockBegin
  2
_Open30
 70
     0
 10
0.0
 20
0.0
 30
0.0
  3
_Open30
  1

  0
LINE
  5
92
330
91
100
AcDbEntity
  8
0
  6
ByBlock
 62
     0
370
    -2
100
AcDbLine
 10
-1.0
 20
0.26794919
 30
0.0
 11
0.0
 21
0.0
 31
0.0
  0
LINE
  5
93
330
91
100
AcDbEntity
  8
0
  6
ByBlock
 62
     0
370
    -2
100
AcDbLine
 10
0.0
 20
0.0
 30
0.0
 11
-1.0
 21
-0.26794919
 31
0.0
  0
LINE
  5
94
330
91
100
AcDbEntity
  8
0
  6
ByBlock
 62
     0
370
    -2
100
AcDbLine
 10
0.0
 20
0.0
 30
0.0
 11
-1.0
 21
0.0
 31
0.0
  0
ENDBLK
  5
96
330
91
100
AcDbEntity
  8
0
100
AcDbBlockEnd
  0
BLOCK
  5
490
330
48F
100
AcDbEntity
  8
0
100
AcDbBlockBegin
  2
仕上
 70
     0
 10
0.0
 20
0.0
 30
0.0
  3
仕上
  1

  0
TEXT
  5
492
330
48F
100
AcDbEntity
  8
00外形線
  6
Continuous
370
    20
100
AcDbText
 10
22.21634268401872
 20
-1.959606387881789
 30
0.0
 40
5.0
  1
)
 41
0.9
  7
ベン
 72
     4
 11
23.11545685724707
 21
0.5403936121182085
 31
0.0
100
AcDbText
  0
TEXT
  5
493
330
48F
100
AcDbEntity
  8
00外形線
  6
Continuous
370
    20
100
AcDbText
 10
6.200960683606441
 20
-1.959606387881792
 30
0.0
 40
5.0
  1
(
 41
0.9
  7
ベン
 72
     4
 11
7.101846510378095
 21
0.5403936121182085
 31
0.0
100
AcDbText
  0
ARC
  5
494
330
48F
100
AcDbEntity
  8
00外形線
  6
Continuous
370
    20
100
AcDbCircle
 10
4.510874625983689
 20
1.999999999999971
 30
0.0
 40
2.0
100
AcDbArc
 50
226.8698976458444
 51
332.6382886505778
  0
ARC
  5
495
330
48F
100
AcDbEntity
  8
00外形線
  6
Continuous
370
    20
100
AcDbCircle
 10
1.776245442745249
 20
-0.9192127757634409
 30
0.0
 40
2.0
100
AcDbArc
 50
46.86989764584444
 51
152.6382886505763
  0
LINE
  5
496
330
48F
100
AcDbEntity
  8
00外形線
  6
Continuous
370
    20
100
AcDbLine
 10
8.975345337025089
 20
-1.459606387881848
 30
0.0
 11
10.13004587540436
 21
0.5403936121182085
 31
0.0
  0
LINE
  5
497
330
48F
100
AcDbEntity
  8
00外形線
  6
Continuous
370
    20
100
AcDbLine
 10
7.820644798645872
 20
0.5403936121182085
 30
0.0
 11
10.13004587540439
 21
0.5403936121182085
 31
0.0
  0
LINE
  5
498
330
48F
100
AcDbEntity
  8
00外形線
  6
Continuous
370
    20
100
AcDbLine
 10
8.975345337025089
 20
-1.459606387881791
 30
0.0
 11
7.820644798645844
 21
0.5403936121182085
 31
0.0
  0
LINE
  5
499
330
48F
100
AcDbEntity
  8
00外形線
  6
Continuous
370
    20
100
AcDbLine
 10
17.17666254613365
 20
-1.459606387881848
 30
0.0
 11
18.33136308451293
 21
0.5403936121182085
 31
0.0
  0
LINE
  5
49A
330
48F
100
AcDbEntity
  8
00外形線
  6
Continuous
370
    20
100
AcDbLine
 10
16.02196200775444
 20
0.5403936121182085
 30
0.0
 11
18.33136308451296
 21
0.5403936121182085
 31
0.0
  0
LINE
  5
49B
330
48F
100
AcDbEntity
  8
00外形線
  6
Continuous
370
    20
100
AcDbLine
 10
14.2656536245332
 20
-1.459606387881791
 30
0.0
 11
13.11095308615395
 21
0.5403936121182085
 31
0.0
  0
LINE
  5
49C
330
48F
100
AcDbEntity
  8
00外形線
  6
Continuous
370
    20
100
AcDbLine
 10
13.11095308615398
 20
0.5403936121182085
 30
0.0
 11
15.4203541629125
 21
0.5403936121182085
 31
0.0
  0
LINE
  5
49D
330
48F
100
AcDbEntity
  8
00外形線
  6
Continuous
370
    20
100
AcDbLine
 10
11.95625254777468
 20
-1.459606387881791
 30
0.0
 11
10.80155200939543
 21
0.5403936121182085
 31
0.0
  0
LINE
  5
49E
330
48F
100
AcDbEntity
  8
00外形線
  6
Continuous
370
    20
100
AcDbLine
 10
11.95625254777468
 20
-1.459606387881848
 30
0.0
 11
13.11095308615395
 21
0.5403936121182085
 31
0.0
  0
LINE
  5
49F
330
48F
100
AcDbEntity
  8
00外形線
  6
Continuous
370
    20
100
AcDbLine
 10
10.80155200939546
 20
0.5403936121182085
 30
0.0
 11
13.11095308615398
 21
0.5403936121182085
 31
0.0
  0
LINE
  5
4A0
330
48F
100
AcDbEntity
  8
00外形線
  6
Continuous
370
    20
100
AcDbLine
 10
17.17666254613365
 20
-1.459606387881791
 30
0.0
 11
16.02196200775441
 21
0.5403936121182085
 31
0.0
  0
LINE
  5
4A1
330
48F
100
AcDbEntity
  8
00外形線
  6
Continuous
370
    20
100
AcDbLine
 10
14.2656536245332
 20
-1.459606387881848
 30
0.0
 11
15.42035416291247
 21
0.5403936121182085
 31
0.0
  0
LINE
  5
4A2
330
48F
100
AcDbEntity
  8
00外形線
  6
Continuous
370
    20
100
AcDbLine
 10
20.64076416127148
 20
0.5403936121182085
 30
0.0
 11
22.95016523803
 21
0.5403936121182085
 31
0.0
  0
LINE
  5
4A3
330
48F
100
AcDbEntity
  8
00外形線
  6
Continuous
370
    20
100
AcDbLine
 10
21.79546469965069
 20
-1.459606387881791
 30
0.0
 11
20.64076416127145
 21
0.5403936121182085
 31
0.0
  0
LINE
  5
4A4
330
48F
100
AcDbEntity
  8
00外形線
  6
Continuous
370
    20
100
AcDbLine
 10
19.48606362289217
 20
-1.459606387881848
 30
0.0
 11
20.64076416127145
 21
0.5403936121182085
 31
0.0
  0
LINE
  5
4A5
330
48F
100
AcDbEntity
  8
00外形線
  6
Continuous
370
    20
100
AcDbLine
 10
18.33136308451296
 20
0.5403936121182085
 30
0.0
 11
20.64076416127148
 21
0.5403936121182085
 31
0.0
  0
LINE
  5
4A6
330
48F
100
AcDbEntity
  8
00外形線
  6
Continuous
370
    20
100
AcDbLine
 10
19.48606362289217
 20
-1.459606387881791
 30
0.0
 11
18.33136308451293
 21
0.5403936121182085
 31
0.0
  0
LINE
  5
4A7
330
48F
100
AcDbEntity
  8
00外形線
  6
Continuous
370
    20
100
AcDbLine
 10
21.79546469965069
 20
-1.459606387881848
 30
0.0
 11
22.95016523802997
 21
0.5403936121182085
 31
0.0
  0
TEXT
  5
4A8
330
48F
100
AcDbEntity
  8
00外形線
  6
Continuous
370
    20
100
AcDbText
 10
7.362828801592047
 20
1.045085736824602
 30
0.0
 40
1.6
  1
35S
 41
0.9
  7
ベン
 72
     4
 11
8.975345337025117
 21
1.840295108527669
 31
0.0
100
AcDbText
  0
TEXT
  5
4A9
330
48F
100
AcDbEntity
  8
00外形線
  6
Continuous
370
    20
100
AcDbText
 10
10.92243655072091
 20
1.033274713202555
 30
0.0
 40
1.6
  1
12.5S
 41
0.9
  7
ベン
 72
     4
 11
13.11095308615398
 21
1.840295108527669
 31
0.0
100
AcDbText
  0
TEXT
  5
4AA
330
48F
100
AcDbEntity
  8
00外形線
  6
Continuous
370
    20
100
AcDbText
 10
17.70063370163233
 20
1.037526681706492
 30
0.0
 40
1.6
  1
6.3S
 41
0.9
  7
ベン
 72
     4
 11
19.48606362289217
 21
1.840295108527669
 31
0.0
100
AcDbText
  0
ENDBLK
  5
491
330
48F
100
AcDbEntity
  8
0
100
AcDbBlockEnd
  0
BLOCK
  5
4AD
330
4AC
100
AcDbEntity
  8
0
100
AcDbBlockBegin
  2
波形
 70
     0
 10
0.0
 20
0.0
 30
0.0
  3
波形
  1

  0
ARC
  5
4AF
330
4AC
100
AcDbEntity
  8
00外形線
  6
Continuous
370
    20
100
AcDbCircle
 10
4.510874625983689
 20
1.999999999999971
 30
0.0
 40
2.0
100
AcDbArc
 50
226.8698976458444
 51
332.6382886505778
  0
ARC
  5
4B0
330
4AC
100
AcDbEntity
  8
00外形線
  6
Continuous
370
    20
100
AcDbCircle
 10
1.776245442745249
 20
-0.9192127757634409
 30
0.0
 40
2.0
100
AcDbArc
 50
46.86989764584444
 51
152.6382886505763
  0
ENDBLK
  5
4AE
330
4AC
100
AcDbEntity
  8
0
100
AcDbBlockEnd
  0
BLOCK
  5
4B3
330
4B2
100
AcDbEntity
  8
0
100
AcDbBlockBegin
  2
35S
 70
     0
 10
0.0
 20
0.0
 30
0.0
  3
35S
  1

  0
LINE
  5
4B5
330
4B2
100
AcDbEntity
  8
00外形線
  6
Continuous
370
    20
100
AcDbLine
 10
0.0
 20
0.0
 30
0.0
 11
1.154700538379273
 21
2.000000000000056
 31
0.0
  0
LINE
  5
4B6
330
4B2
100
AcDbEntity
  8
00外形線
  6
Continuous
370
    20
100
AcDbLine
 10
-1.154700538379216
 20
2.000000000000056
 30
0.0
 11
1.154700538379302
 21
2.000000000000056
 31
0.0
  0
LINE
  5
4B7
330
4B2
100
AcDbEntity
  8
00外形線
  6
Continuous
370
    20
100
AcDbLine
 10
0.0
 20
0.0000000000000568
 30
0.0
 11
-1.154700538379245
 21
2.000000000000056
 31
0.0
  0
ENDBLK
  5
4B4
330
4B2
100
AcDbEntity
  8
0
100
AcDbBlockEnd
  0
BLOCK
  5
4BA
330
4B9
100
AcDbEntity
  8
0
100
AcDbBlockBegin
  2
12.5S
 70
     0
 10
0.0
 20
0.0
 30
0.0
  3
12.5S
  1

  0
LINE
  5
4BC
330
4B9
100
AcDbEntity
  8
00外形線
  6
Continuous
370
    20
100
AcDbLine
 10
2.309401076758518
 20
0.0
 30
0.0
 11
3.464101615137792
 21
2.000000000000056
 31
0.0
  0
LINE
  5
4BD
330
4B9
100
AcDbEntity
  8
00外形線
  6
Continuous
370
    20
100
AcDbLine
 10
2.309401076758518
 20
0.0000000000000568
 30
0.0
 11
1.154700538379273
 21
2.000000000000056
 31
0.0
  0
LINE
  5
4BE
330
4B9
100
AcDbEntity
  8
00外形線
  6
Continuous
370
    20
100
AcDbLine
 10
0.0
 20
0.0000000000000568
 30
0.0
 11
-1.154700538379245
 21
2.000000000000056
 31
0.0
  0
LINE
  5
4BF
330
4B9
100
AcDbEntity
  8
00外形線
  6
Continuous
370
    20
100
AcDbLine
 10
0.0
 20
0.0
 30
0.0
 11
1.154700538379273
 21
2.000000000000056
 31
0.0
  0
LINE
  5
4C0
330
4B9
100
AcDbEntity
  8
00外形線
  6
Continuous
370
    20
100
AcDbLine
 10
-1.154700538379216
 20
2.000000000000056
 30
0.0
 11
1.154700538379302
 21
2.000000000000056
 31
0.0
  0
LINE
  5
4C1
330
4B9
100
AcDbEntity
  8
00外形線
  6
Continuous
370
    20
100
AcDbLine
 10
1.154700538379302
 20
2.000000000000056
 30
0.0
 11
3.46410161513782
 21
2.000000000000056
 31
0.0
  0
ENDBLK
  5
4BB
330
4B9
100
AcDbEntity
  8
0
100
AcDbBlockEnd
  0
BLOCK
  5
4C4
330
4C3
100
AcDbEntity
  8
0
100
AcDbBlockBegin
  2
6.3S
 70
     0
 10
0.0
 20
0.0
 30
0.0
  3
6.3S
  1

  0
LINE
  5
4C6
330
4C3
100
AcDbEntity
  8
00外形線
  6
Continuous
370
    20
100
AcDbLine
 10
4.618802153517037
 20
0.0
 30
0.0
 11
5.773502691896311
 21
2.000000000000056
 31
0.0
  0
LINE
  5
4C7
330
4C3
100
AcDbEntity
  8
00外形線
  6
Continuous
370
    20
100
AcDbLine
 10
0.0
 20
0.0
 30
0.0
 11
1.154700538379273
 21
2.000000000000056
 31
0.0
  0
LINE
  5
4C8
330
4C3
100
AcDbEntity
  8
00外形線
  6
Continuous
370
    20
100
AcDbLine
 10
2.309401076758518
 20
0.0
 30
0.0
 11
3.464101615137792
 21
2.000000000000056
 31
0.0
  0
LINE
  5
4C9
330
4C3
100
AcDbEntity
  8
00外形線
  6
Continuous
370
    20
100
AcDbLine
 10
2.309401076758518
 20
0.0000000000000568
 30
0.0
 11
1.154700538379273
 21
2.000000000000056
 31
0.0
  0
LINE
  5
4CA
330
4C3
100
AcDbEntity
  8
00外形線
  6
Continuous
370
    20
100
AcDbLine
 10
4.618802153517037
 20
0.0000000000000568
 30
0.0
 11
3.464101615137792
 21
2.000000000000056
 31
0.0
  0
LINE
  5
4CB
330
4C3
100
AcDbEntity
  8
00外形線
  6
Continuous
370
    20
100
AcDbLine
 10
0.0
 20
0.0000000000000568
 30
0.0
 11
-1.154700538379245
 21
2.000000000000056
 31
0.0
  0
LINE
  5
4CC
330
4C3
100
AcDbEntity
  8
00外形線
  6
Continuous
370
    20
100
AcDbLine
 10
-1.154700538379216
 20
2.000000000000056
 30
0.0
 11
1.154700538379302
 21
2.000000000000056
 31
0.0
  0
LINE
  5
4CD
330
4C3
100
AcDbEntity
  8
00外形線
  6
Continuous
370
    20
100
AcDbLine
 10
3.46410161513782
 20
2.000000000000056
 30
0.0
 11
5.773502691896339
 21
2.000000000000056
 31
0.0
  0
LINE
  5
4CE
330
4C3
100
AcDbEntity
  8
00外形線
  6
Continuous
370
    20
100
AcDbLine
 10
1.154700538379302
 20
2.000000000000056
 30
0.0
 11
3.46410161513782
 21
2.000000000000056
 31
0.0
  0
ENDBLK
  5
4C5
330
4C3
100
AcDbEntity
  8
0
100
AcDbBlockEnd
  0
BLOCK
  5
4D1
330
4D0
100
AcDbEntity
  8
0
100
AcDbBlockBegin
  2
0.8S
 70
     0
 10
0.0
 20
0.0
 30
0.0
  3
0.8S
  1

  0
LINE
  5
4D3
330
4D0
100
AcDbEntity
  8
00外形線
  6
Continuous
370
    20
100
AcDbLine
 10
-1.154700538379216
 20
2.000000000000056
 30
0.0
 11
1.154700538379302
 21
2.000000000000056
 31
0.0
  0
LINE
  5
4D4
330
4D0
100
AcDbEntity
  8
00外形線
  6
Continuous
370
    20
100
AcDbLine
 10
0.0
 20
0.0
 30
0.0
 11
1.154700538379273
 21
2.000000000000056
 31
0.0
  0
LINE
  5
4D5
330
4D0
100
AcDbEntity
  8
00外形線
  6
Continuous
370
    20
100
AcDbLine
 10
0.0
 20
0.0000000000000568
 30
0.0
 11
-1.154700538379245
 21
2.000000000000056
 31
0.0
  0
LINE
  5
4D6
330
4D0
100
AcDbEntity
  8
00外形線
  6
Continuous
370
    20
100
AcDbLine
 10
4.618802153517009
 20
0.0
 30
0.0
 11
5.773502691896283
 21
2.000000000000056
 31
0.0
  0
LINE
  5
4D7
330
4D0
100
AcDbEntity
  8
00外形線
  6
Continuous
370
    20
100
AcDbLine
 10
6.928203230275499
 20
0.0000000000000568
 30
0.0
 11
5.773502691896254
 21
2.000000000000056
 31
0.0
  0
LINE
  5
4D8
330
4D0
100
AcDbEntity
  8
00外形線
  6
Continuous
370
    20
100
AcDbLine
 10
6.928203230275499
 20
0.0
 30
0.0
 11
8.082903768654773
 21
2.000000000000056
 31
0.0
  0
LINE
  5
4D9
330
4D0
100
AcDbEntity
  8
00外形線
  6
Continuous
370
    20
100
AcDbLine
 10
2.30940107675849
 20
0.0
 30
0.0
 11
3.464101615137764
 21
2.000000000000056
 31
0.0
  0
LINE
  5
4DA
330
4D0
100
AcDbEntity
  8
00外形線
  6
Continuous
370
    20
100
AcDbLine
 10
2.30940107675849
 20
0.0000000000000568
 30
0.0
 11
1.154700538379245
 21
2.000000000000056
 31
0.0
  0
LINE
  5
4DB
330
4D0
100
AcDbEntity
  8
00外形線
  6
Continuous
370
    20
100
AcDbLine
 10
4.618802153517009
 20
0.0000000000000568
 30
0.0
 11
3.464101615137764
 21
2.000000000000056
 31
0.0
  0
LINE
  5
4DC
330
4D0
100
AcDbEntity
  8
00外形線
  6
Continuous
370
    20
100
AcDbLine
 10
3.464101615137792
 20
2.000000000000056
 30
0.0
 11
5.773502691896311
 21
2.000000000000056
 31
0.0
  0
LINE
  5
4DD
330
4D0
100
AcDbEntity
  8
00外形線
  6
Continuous
370
    20
100
AcDbLine
 10
1.154700538379273
 20
2.000000000000056
 30
0.0
 11
3.464101615137792
 21
2.000000000000056
 31
0.0
  0
LINE
  5
4DE
330
4D0
100
AcDbEntity
  8
00外形線
  6
Continuous
370
    20
100
AcDbLine
 10
5.773502691896283
 20
2.000000000000056
 30
0.0
 11
8.082903768654801
 21
2.000000000000056
 31
0.0
  0
ENDBLK
  5
4D2
330
4D0
100
AcDbEntity
  8
0
100
AcDbBlockEnd
  0
BLOCK
  5
8BF
330
8BC
100
AcDbEntity
  8
0
100
AcDbBlockBegin
  2
BM-12エンドキャップ
 70
     0
 10
0.0
 20
0.0
 30
0.0
  3
BM-12エンドキャップ
  1

  0
LINE
  5
8C0
330
8BC
100
AcDbEntity
  8
00外形線
100
AcDbLine
 10
190.4397961480413
 20
215.1315311857096
 30
0.0
 11
190.4397961480413
 21
213.0815311857096
 31
0.0
  0
LINE
  5
8C1
330
8BC
100
AcDbEntity
  8
00外形線
100
AcDbLine
 10
190.4397961480413
 20
215.1315311857096
 30
0.0
 11
190.5382329692836
 21
215.1315311857096
 31
0.0
  0
LINE
  5
8C2
330
8BC
100
AcDbEntity
  8
00外形線
100
AcDbLine
 10
169.4397961480412
 20
235.5815311857096
 30
0.0
 11
169.4397961480412
 21
215.0815311857096
 31
0.0
  0
LINE
  5
8C3
330
8BC
100
AcDbEntity
  8
00外形線
100
AcDbLine
 10
189.9397961480413
 20
212.5815311857096
 30
0.0
 11
190.4397961480413
 21
213.0815311857096
 31
0.0
  0
LINE
  5
8C4
330
8BC
100
AcDbEntity
  8
00外形線
100
AcDbLine
 10
190.4397961480413
 20
256.0315311857096
 30
0.0
 11
190.4397961480413
 21
258.0815311857096
 31
0.0
  0
LINE
  5
8C5
330
8BC
100
AcDbEntity
  8
00外形線
100
AcDbLine
 10
186.4397961480414
 20
212.5815311857096
 30
0.0
 11
186.4397961480413
 21
258.5815311857096
 31
0.0
  0
LINE
  5
8C6
330
8BC
100
AcDbEntity
  8
00外形線
100
AcDbLine
 10
190.4397961480413
 20
256.0315311857096
 30
0.0
 11
190.5382329692836
 21
256.0315311857096
 31
0.0
  0
LINE
  5
8C7
330
8BC
100
AcDbEntity
  8
00外形線
100
AcDbLine
 10
169.4397961480412
 20
235.5815311857096
 30
0.0
 11
169.4397961480412
 21
256.0815311857096
 31
0.0
  0
LINE
  5
8C8
330
8BC
100
AcDbEntity
  8
00外形線
100
AcDbLine
 10
189.9397961480413
 20
258.5815311857096
 30
0.0
 11
190.4397961480413
 21
258.0815311857096
 31
0.0
  0
LINE
  5
8C9
330
8BC
100
AcDbEntity
  8
00外形線
100
AcDbLine
 10
169.4397961480412
 20
215.0815311857096
 30
0.0
 11
170.8831718210152
 21
212.5815311857096
 31
0.0
  0
LINE
  5
8CA
330
8BC
100
AcDbEntity
  8
00外形線
100
AcDbLine
 10
169.4397961480412
 20
256.0815311857096
 30
0.0
 11
170.8831718210152
 21
258.5815311857096
 31
0.0
  0
LINE
  5
8CB
330
8BC
100
AcDbEntity
  8
00外形線
100
AcDbLine
 10
189.9397961480413
 20
212.5815311857096
 30
0.0
 11
170.8831718210152
 21
212.5815311857096
 31
0.0
  0
LINE
  5
8CC
330
8BC
100
AcDbEntity
  8
00外形線
100
AcDbLine
 10
189.9397961480413
 20
258.5815311857096
 30
0.0
 11
170.8831718210152
 21
258.5815311857096
 31
0.0
  0
ARC
  5
8CD
330
8BC
100
AcDbEntity
  8
00外形線
370
    -3
100
AcDbCircle
 10
213.9487771104098
 20
235.5815311857086
 30
0.0
 40
44.53404792272741
100
AcDbArc
 50
167.683020046588
 51
192.3169799534068
  0
LINE
  5
8CE
330
8BC
100
AcDbEntity
  8
00外形線
370
    -3
100
AcDbLine
 10
170.4397961480408
 20
245.0815311857096
 30
0.0
 11
186.4397961480413
 21
245.0815311857095
 31
0.0
  0
LINE
  5
8CF
330
8BC
100
AcDbEntity
  8
00外形線
370
    -3
100
AcDbLine
 10
170.4397961480411
 20
226.0815311857096
 30
0.0
 11
186.4397961480413
 21
226.0815311857083
 31
0.0
  0
ARC
  5
8D0
330
8BC
100
AcDbEntity
  8
00外形線
370
    -3
100
AcDbCircle
 10
213.9487771104102
 20
254.5815311857077
 30
0.0
 40
44.53404792272741
100
AcDbArc
 50
178.0775159098852
 51
192.3169799534068
  0
ARC
  5
8D1
330
8BC
100
AcDbEntity
  8
00外形線
370
    -3
100
AcDbCircle
 10
213.9487771104102
 20
216.5815311857115
 30
0.0
 40
44.53404792272741
100
AcDbArc
 50
167.6830200465931
 51
181.9224840901147
  0
ENDBLK
  5
8D2
330
8BC
100
AcDbEntity
  8
0
100
AcDbBlockEnd
  0
BLOCK
  5
8D4
330
8D3
100
AcDbEntity
  8
0
100
AcDbBlockBegin
  2
BN-30Nユニオンナット
 70
     0
 10
0.0
 20
0.0
 30
0.0
  3
BN-30Nユニオンナット
  1

  0
LINE
  5
8D5
330
8D3
100
AcDbEntity
  8
00外形線
100
AcDbLine
 10
230.3387314887512
 20
208.4460722376286
 30
0.0
 11
252.1408608073303
 21
208.4460722376286
 31
0.0
  0
LINE
  5
8D6
330
8D3
100
AcDbEntity
  8
00外形線
100
AcDbLine
 10
254.2397961480409
 20
235.5815348895411
 30
0.0
 11
254.2397961480409
 21
212.0815348895412
 31
0.0
  0
LINE
  5
8D7
330
8D3
100
AcDbEntity
  8
00外形線
100
AcDbLine
 10
228.2397961480409
 20
212.0815348895412
 30
0.0
 11
230.3387314887515
 21
208.4460722376286
 31
0.0
  0
LINE
  5
8D8
330
8D3
100
AcDbEntity
  8
00外形線
100
AcDbLine
 10
254.2397961480409
 20
212.0815348895412
 30
0.0
 11
252.1408608073303
 21
208.4460722376286
 31
0.0
  0
LINE
  5
8D9
330
8D3
100
AcDbEntity
  8
00外形線
100
AcDbLine
 10
228.2397961480409
 20
212.0815348895412
 30
0.0
 11
228.2397961480398
 21
235.5815348895411
 31
0.0
  0
ARC
  5
8DA
330
8D3
100
AcDbEntity
  8
00外形線
100
AcDbCircle
 10
273.1408608073278
 20
235.5815348895408
 30
0.0
 40
44.90106465928698
100
AcDbArc
 50
180.0
 51
197.5879537739925
  0
ARC
  5
8DB
330
8D3
100
AcDbEntity
  8
00外形線
100
AcDbCircle
 10
209.338731488754
 20
235.581534889541
 30
0.0
 40
44.90106465928698
100
AcDbArc
 50
342.4120462260075
 51
0.0
  0
LINE
  5
8DC
330
8D3
100
AcDbEntity
  8
00外形線
100
AcDbLine
 10
230.3387314887515
 20
222.0138035635847
 30
0.0
 11
252.1408608073302
 21
222.0138035635845
 31
0.0
  0
ARC
  5
8DD
330
8D3
100
AcDbEntity
  8
00外形線
100
AcDbCircle
 10
240.2521630656282
 20
215.2299379006065
 30
0.0
 40
12.01236691758756
100
AcDbArc
 50
145.6157525319518
 51
214.3842474680423
  0
ARC
  5
8DE
330
8D3
100
AcDbEntity
  8
00外形線
100
AcDbCircle
 10
242.2274292304534
 20
215.2299379006065
 30
0.0
 40
12.01236691758756
100
AcDbArc
 50
325.6157525319577
 51
34.38424746804819
  0
LINE
  5
8DF
330
8D3
100
AcDbEntity
  8
00外形線
100
AcDbLine
 10
230.3387314887517
 20
262.716997541453
 30
0.0
 11
252.1408608073307
 21
262.7169975414527
 31
0.0
  0
LINE
  5
8E0
330
8D3
100
AcDbEntity
  8
00外形線
100
AcDbLine
 10
254.2397961480409
 20
235.5815348895401
 30
0.0
 11
254.2397961480411
 21
259.0815348895401
 31
0.0
  0
LINE
  5
8E1
330
8D3
100
AcDbEntity
  8
00外形線
100
AcDbLine
 10
228.2397961480411
 20
259.0815348895405
 30
0.0
 11
230.3387314887518
 21
262.716997541453
 31
0.0
  0
LINE
  5
8E2
330
8D3
100
AcDbEntity
  8
00外形線
100
AcDbLine
 10
254.2397961480411
 20
259.0815348895401
 30
0.0
 11
252.1408608073307
 21
262.7169975414527
 31
0.0
  0
LINE
  5
8E3
330
8D3
100
AcDbEntity
  8
00外形線
100
AcDbLine
 10
228.2397961480411
 20
259.0815348895405
 30
0.0
 11
228.2397961480398
 21
235.5815348895405
 31
0.0
  0
ARC
  5
8E4
330
8D3
100
AcDbEntity
  8
00外形線
100
AcDbCircle
 10
273.1408608073278
 20
235.5815348895401
 30
0.0
 40
44.90106465928698
100
AcDbArc
 50
162.4120462260075
 51
180.0
  0
ARC
  5
8E5
330
8D3
100
AcDbEntity
  8
00外形線
100
AcDbCircle
 10
209.338731488754
 20
235.581534889541
 30
0.0
 40
44.90106465928698
100
AcDbArc
 50
0.0
 51
17.58795377399251
  0
LINE
  5
8E6
330
8D3
100
AcDbEntity
  8
00外形線
100
AcDbLine
 10
230.3387314887516
 20
249.149266215497
 30
0.0
 11
252.1408608073303
 21
249.1492662154968
 31
0.0
  0
ARC
  5
8E7
330
8D3
100
AcDbEntity
  8
00外形線
100
AcDbCircle
 10
240.2521630656285
 20
255.9331318784749
 30
0.0
 40
12.01236691758756
100
AcDbArc
 50
145.6157525319518
 51
214.3842474680482
  0
ARC
  5
8E8
330
8D3
100
AcDbEntity
  8
00外形線
100
AcDbCircle
 10
242.2274292304536
 20
255.9331318784749
 30
0.0
 40
12.01236691758756
100
AcDbArc
 50
325.6157525319518
 51
34.38424746804232
  0
ENDBLK
  5
8E9
330
8D3
100
AcDbEntity
  8
0
100
AcDbBlockEnd
  0
BLOCK
  5
8EB
330
8EA
100
AcDbEntity
  8
0
100
AcDbBlockBegin
  2
ハンドル
 70
     0
 10
0.0
 20
0.0
 30
0.0
  3
ハンドル
  1

  0
LINE
  5
8EC
330
8EA
100
AcDbEntity
  8
00外形線
100
AcDbLine
 10
219.9363295954904
 20
262.0815311857096
 30
0.0
 11
219.9363295954904
 21
293.5815311857094
 31
0.0
  0
LINE
  5
8ED
330
8EA
100
AcDbEntity
  8
00外形線
100
AcDbLine
 10
204.9363295954904
 20
306.5815311857097
 30
0.0
 11
204.9363295954904
 21
303.5815311857094
 31
0.0
  0
LINE
  5
8EE
330
8EA
100
AcDbEntity
  8
00外形線
100
AcDbLine
 10
214.9363295954904
 20
306.5815311857097
 30
0.0
 11
214.9363295954904
 21
303.5815311857094
 31
0.0
  0
LINE
  5
8EF
330
8EA
100
AcDbEntity
  8
00外形線
100
AcDbLine
 10
190.4012528616422
 20
307.5815311857097
 30
0.0
 11
203.9363295954902
 21
307.5815311857097
 31
0.0
  0
LINE
  5
8F0
330
8EA
100
AcDbEntity
  8
00外形線
100
AcDbLine
 10
215.9363295954904
 20
307.5815311857097
 30
0.0
 11
229.471406329339
 21
307.5815311857097
 31
0.0
  0
LINE
  5
8F1
330
8EA
100
AcDbEntity
  8
00外形線
100
AcDbLine
 10
188.9363295954902
 20
293.5815311857094
 30
0.0
 11
189.4018900072942
 21
306.6172227162216
 31
0.0
  0
LINE
  5
8F2
330
8EA
100
AcDbEntity
  8
00外形線
100
AcDbLine
 10
230.9363295954904
 20
293.5815311857094
 30
0.0
 11
230.4707691836866
 21
306.6172227162212
 31
0.0
  0
LINE
  5
8F3
330
8EA
100
AcDbEntity
  8
00外形線
100
AcDbLine
 10
205.9363295954904
 20
302.5815311857097
 30
0.0
 11
213.9363295954902
 21
302.5815311857097
 31
0.0
  0
ARC
  5
8F4
330
8EA
100
AcDbEntity
  8
00外形線
100
AcDbCircle
 10
190.4012528616422
 20
306.5815311857097
 30
0.0
 40
1.0
100
AcDbArc
 50
90.0
 51
177.9545915111398
  0
ARC
  5
8F5
330
8EA
100
AcDbEntity
  8
00外形線
100
AcDbCircle
 10
203.9363295954902
 20
306.5815311857097
 30
0.0
 40
1.0
100
AcDbArc
 50
0.0
 51
90.0
  0
ARC
  5
8F6
330
8EA
100
AcDbEntity
  8
00外形線
100
AcDbCircle
 10
205.9363295954904
 20
303.5815311857094
 30
0.0
 40
1.0
100
AcDbArc
 50
180.0
 51
270.0
  0
ARC
  5
8F7
330
8EA
100
AcDbEntity
  8
00外形線
100
AcDbCircle
 10
213.9363295954902
 20
303.5815311857094
 30
0.0
 40
1.0
100
AcDbArc
 50
270.0
 51
0.0
  0
ARC
  5
8F8
330
8EA
100
AcDbEntity
  8
00外形線
100
AcDbCircle
 10
215.9363295954904
 20
306.5815311857097
 30
0.0
 40
1.0
100
AcDbArc
 50
90.0
 51
180.0
  0
ARC
  5
8F9
330
8EA
100
AcDbEntity
  8
00外形線
100
AcDbCircle
 10
229.471406329339
 20
306.581531185709
 30
0.0
 40
1.0
100
AcDbArc
 50
2.045408488860142
 51
90.0
  0
LINE
  5
8FA
330
8EA
100
AcDbEntity
  8
00外形線
100
AcDbLine
 10
188.9363295954902
 20
293.5815311857094
 30
0.0
 11
199.9363295954904
 21
293.5815311857094
 31
0.0
  0
LINE
  5
8FB
330
8EA
100
AcDbEntity
  8
00外形線
100
AcDbLine
 10
219.9363295954904
 20
293.5815311857094
 30
0.0
 11
230.9363295954904
 21
293.5815311857094
 31
0.0
  0
LINE
  5
8FC
330
8EA
100
AcDbEntity
  8
00外形線
100
AcDbLine
 10
199.9363295954904
 20
262.0815311857096
 30
0.0
 11
199.9363295954904
 21
293.5815311857094
 31
0.0
  0
LINE
  5
8FD
330
8EA
100
AcDbEntity
  8
00外形線
100
AcDbLine
 10
199.9363295954904
 20
262.0815311857096
 30
0.0
 11
219.9363295954904
 21
262.0815311857096
 31
0.0
  0
ARC
  5
8FE
330
8EA
100
AcDbEntity
  8
00外形線
100
AcDbCircle
 10
209.9363295954903
 20
292.9565311857095
 30
0.0
 40
10.62500000000002
100
AcDbArc
 50
65.7930354501609
 51
114.2069645498391
  0
ENDBLK
  5
8FF
330
8EA
100
AcDbEntity
  8
0
100
AcDbBlockEnd
  0
BLOCK
  5
903
330
900
100
AcDbEntity
  8
0
100
AcDbBlockBegin
  2
BN-30N本体(納入品図面用)
 70
     0
 10
0.0
 20
0.0
 30
0.0
  3
BN-30N本体(納入品図面用)
  1

  0
ARC
  5
904
330
900
100
AcDbEntity
  8
00外形線
100
AcDbCircle
 10
102.1718921341738
 20
259.4467996529728
 30
0.0
 40
2.0
100
AcDbArc
 50
356.416678301528
 51
90.0
1001
GENIUS_GENOBJ-N-FIL_13
1002
{
1000
OWNER
1000
GEN
1002
}
1001
GENIUS_GENODEF_13
1002
{
1000
HIER
1070
     0
1002
}
1002
{
1000
MANEDIT
1070
     0
1002
}
1002
{
1000
NOSEL
1070
     0
1002
}
1002
{
1000
BEHIND
1070
     0
1002
}
1002
{
1000
OTHER
1070
     0
1002
}
1002
{
1000
REACTOR
1002
}
  0
ARC
  5
905
330
900
100
AcDbEntity
  8
00外形線
100
AcDbCircle
 10
106.1640719898416
 20
259.1967996529728
 30
0.0
 40
2.0
100
AcDbArc
 50
176.416678301528
 51
270.0
1001
GENIUS_GENODEF_13
1002
{
1000
HIER
1070
     0
1002
}
1002
{
1000
MANEDIT
1070
     0
1002
}
1002
{
1000
NOSEL
1070
     0
1002
}
1002
{
1000
BEHIND
1070
     0
1002
}
1002
{
1000
OTHER
1070
     0
1002
}
1002
{
1000
REACTOR
1002
}
1001
GENIUS_GENOBJ-N-FIL_13
1002
{
1000
OWNER
1000
GEN
1002
}
  0
LINE
  5
906
330
900
100
AcDbEntity
  8
00外形線
100
AcDbLine
 10
97.79295994603934
 20
261.4467996529728
 30
0.0
 11
102.1718921341738
 21
261.4467996529728
 31
0.0
  0
ARC
  5
907
330
900
100
AcDbEntity
  8
00外形線
100
AcDbCircle
 10
97.79295994603934
 20
263.4467996529728
 30
0.0
 40
2.0
100
AcDbArc
 50
225.0000000000006
 51
270.0
1001
GENIUS_GENOBJ-N-FIL_13
1002
{
1000
OWNER
1000
GEN
1002
}
1001
GENIUS_GENODEF_13
1002
{
1000
HIER
1070
     0
1002
}
1002
{
1000
MANEDIT
1070
     0
1002
}
1002
{
1000
NOSEL
1070
     0
1002
}
1002
{
1000
BEHIND
1070
     0
1002
}
1002
{
1000
OTHER
1070
     0
1002
}
1002
{
1000
REACTOR
1002
}
  0
LINE
  5
908
330
900
100
AcDbEntity
  8
00外形線
100
AcDbLine
 10
66.07189213417382
 20
221.1967996529728
 30
0.0
 11
66.07189213417382
 21
223.0967996529728
 31
0.0
  0
LINE
  5
909
330
900
100
AcDbEntity
  8
00外形線
100
AcDbLine
 10
71.9718921341738
 20
221.6967996529728
 30
0.0
 11
91.8861056965469
 21
221.6967996529728
 31
0.0
  0
ARC
  5
90A
330
900
100
AcDbEntity
  8
00外形線
100
AcDbCircle
 10
71.9718921341738
 20
221.1967996529728
 30
0.0
 40
0.5
100
AcDbArc
 50
90.0
 51
180.0
  0
ARC
  5
90B
330
900
100
AcDbEntity
  8
00外形線
100
AcDbCircle
 10
70.97189213417379
 20
221.1967996529728
 30
0.0
 40
0.5
100
AcDbArc
 50
270.0
 51
0.0
  0
LINE
  5
90C
330
900
100
AcDbEntity
  8
00外形線
100
AcDbLine
 10
66.07189213417382
 20
266.1967996529728
 30
0.0
 11
66.07189213417382
 21
264.2967996529728
 31
0.0
  0
LINE
  5
90D
330
900
100
AcDbEntity
  8
00外形線
100
AcDbLine
 10
66.07189213417382
 20
266.1967996529728
 30
0.0
 11
66.57189213417382
 21
266.6967996529728
 31
0.0
  0
ARC
  5
90E
330
900
100
AcDbEntity
  8
00外形線
100
AcDbCircle
 10
71.9718921341738
 20
266.1967996529728
 30
0.0
 40
0.5
100
AcDbArc
 50
180.0
 51
270.0
  0
ARC
  5
90F
330
900
100
AcDbEntity
  8
00外形線
100
AcDbCircle
 10
70.97189213417379
 20
266.1967996529728
 30
0.0
 40
0.5
100
AcDbArc
 50
0.0
 51
90.0
  0
LINE
  5
910
330
900
100
AcDbEntity
  8
00外形線
100
AcDbLine
 10
74.4718921341738
 20
265.6967996529729
 30
0.0
 11
71.9718921341738
 21
265.6967996529728
 31
0.0
  0
ARC
  5
911
330
900
100
AcDbEntity
  8
00外形線
100
AcDbCircle
 10
74.4718921341738
 20
267.6967996529729
 30
0.0
 40
2.0
100
AcDbArc
 50
270.0
 51
0.0
1001
GENIUS_GENOBJ-N-FIL_13
1002
{
1000
OWNER
1000
GEN
1002
}
1001
GENIUS_GENODEF_13
1002
{
1000
HIER
1070
     0
1002
}
1002
{
1000
MANEDIT
1070
     0
1002
}
1002
{
1000
NOSEL
1070
     0
1002
}
1002
{
1000
BEHIND
1070
     0
1002
}
1002
{
1000
OTHER
1070
     0
1002
}
1002
{
1000
REACTOR
1002
}
  0
LINE
  5
912
330
900
100
AcDbEntity
  8
00外形線
100
AcDbLine
 10
66.57189213417382
 20
266.6967996529728
 30
0.0
 11
70.97189213417379
 21
266.6967996529728
 31
0.0
  0
LINE
  5
913
330
900
100
AcDbEntity
  8
00外形線
100
AcDbLine
 10
66.57189213417382
 20
220.6967996529728
 30
0.0
 11
70.97189213417379
 21
220.6967996529728
 31
0.0
  0
LINE
  5
914
330
900
100
AcDbEntity
  8
00外形線
100
AcDbLine
 10
66.07189213417382
 20
221.1967996529728
 30
0.0
 11
66.57189213417382
 21
220.6967996529728
 31
0.0
1001
GENIUS_GENFIL_13
1070
     0
1040
0.5
1040
0.5
1040
0.5
1040
44.99999999999348
1000
~T
  0
LINE
  5
915
330
900
100
AcDbEntity
  8
00外形線
100
AcDbLine
 10
95.05767857180069
 20
263.3536539024652
 30
0.0
 11
96.37874638366623
 21
262.0325860905997
 31
0.0
  0
ARC
  5
916
330
900
100
AcDbEntity
  8
00外形線
100
AcDbCircle
 10
96.4718921341738
 20
264.7678674648383
 30
0.0
 40
2.0
100
AcDbArc
 50
180.0
 51
225.0000000000006
1001
GENIUS_GENODEF_13
1002
{
1000
HIER
1070
     0
1002
}
1002
{
1000
MANEDIT
1070
     0
1002
}
1002
{
1000
NOSEL
1070
     0
1002
}
1002
{
1000
BEHIND
1070
     0
1002
}
1002
{
1000
OTHER
1070
     0
1002
}
1002
{
1000
REACTOR
1002
}
1001
GENIUS_GENOBJ-N-FIL_13
1002
{
1000
OWNER
1000
GEN
1002
}
  0
LINE
  5
918
330
900
100
AcDbEntity
  8
00外形線
100
AcDbLine
 10
76.4718921341738
 20
269.6933049866119
 30
0.0
 11
76.4718921341738
 21
267.6967996529729
 31
0.0
  0
LINE
  5
919
330
900
100
AcDbEntity
  8
00外形線
100
AcDbLine
 10
92.47189213417383
 20
270.1900993655047
 30
0.0
 11
92.4718921341738
 21
269.6933049866119
 31
0.0
  0
LINE
  5
91B
330
900
100
AcDbEntity
  8
00外形線
100
AcDbLine
 10
94.47189213417379
 20
269.6933049866119
 30
0.0
 11
94.47189213417379
 21
264.7678674648383
 31
0.0
  0
LINE
  5
91C
330
900
100
AcDbEntity
  8
00外形線
100
AcDbLine
 10
66.07189213417382
 20
264.2967996529728
 30
0.0
 11
66.07189213417382
 21
243.6967996529728
 31
0.0
  0
LINE
  5
91D
330
900
100
AcDbEntity
  8
00外形線
100
AcDbLine
 10
66.07189213417382
 20
243.6967996529728
 30
0.0
 11
66.07189213417382
 21
223.0967996529728
 31
0.0
  0
LINE
  5
91E
330
900
100
AcDbEntity
  8
00外形線
100
AcDbLine
 10
97.79295994603934
 20
225.9467996529728
 30
0.0
 11
102.1718921341738
 21
225.9467996529728
 31
0.0
  0
ARC
  5
91F
330
900
100
AcDbEntity
  8
00外形線
100
AcDbCircle
 10
97.79295994603934
 20
223.9467996529728
 30
0.0
 40
2.0
100
AcDbArc
 50
90.0
 51
134.9999999999994
1001
GENIUS_GENOBJ-N-FIL_13
1002
{
1000
OWNER
1000
GEN
1002
}
1001
GENIUS_GENODEF_13
1002
{
1000
HIER
1070
     0
1002
}
1002
{
1000
MANEDIT
1070
     0
1002
}
1002
{
1000
NOSEL
1070
     0
1002
}
1002
{
1000
BEHIND
1070
     0
1002
}
1002
{
1000
OTHER
1070
     0
1002
}
1002
{
1000
REACTOR
1002
}
  0
LINE
  5
920
330
900
100
AcDbEntity
  8
00外形線
100
AcDbLine
 10
93.30031925892001
 20
222.2825860905997
 30
0.0
 11
96.37874638366623
 21
225.3610132153459
 31
0.0
  0
ARC
  5
921
330
900
100
AcDbEntity
  8
00外形線
100
AcDbCircle
 10
91.8861056965469
 20
223.6967996529728
 30
0.0
 40
2.0
100
AcDbArc
 50
270.0
 51
314.9999999999995
1001
GENIUS_GENODEF_13
1002
{
1000
HIER
1070
     0
1002
}
1002
{
1000
MANEDIT
1070
     0
1002
}
1002
{
1000
NOSEL
1070
     0
1002
}
1002
{
1000
BEHIND
1070
     0
1002
}
1002
{
1000
OTHER
1070
     0
1002
}
1002
{
1000
REACTOR
1002
}
1001
GENIUS_GENOBJ-N-FIL_13
1002
{
1000
OWNER
1000
GEN
1002
}
  0
LINE
  5
922
330
900
100
AcDbEntity
  8
00外形線
100
AcDbLine
 10
71.4718921341738
 20
266.1967996529728
 30
0.0
 11
71.4718921341738
 21
243.6967996529728
 31
0.0
  0
LINE
  5
923
330
900
100
AcDbEntity
  8
00外形線
100
AcDbLine
 10
71.4718921341738
 20
243.6967996529728
 30
0.0
 11
71.4718921341738
 21
221.1967996529728
 31
0.0
  0
LINE
  5
924
330
900
100
AcDbEntity
  8
00外形線
100
AcDbLine
 10
96.97189213417381
 20
243.6967996529728
 30
0.0
 11
96.97189213417392
 21
225.7704903198126
 31
0.0
  0
LINE
  5
925
330
900
100
AcDbEntity
  8
00外形線
100
AcDbLine
 10
93.47189213417379
 20
222.4541589658535
 30
0.0
 11
93.47189213417379
 21
260.0309688104498
 31
0.0
  0
LINE
  5
926
330
900
100
AcDbEntity
  8
00外形線
100
AcDbLine
 10
96.97189213417381
 20
243.6967996529728
 30
0.0
 11
96.97189213417381
 21
261.623108986133
 31
0.0
  0
ARC
  5
927
330
900
100
AcDbEntity
  8
00外形線
100
AcDbCircle
 10
89.80828293824959
 20
283.1828969407449
 30
0.0
 40
21.80975780781757
100
AcDbArc
 50
235.262900483219
 51
279.6464243122873
  0
LINE
  5
928
330
900
100
AcDbEntity
  8
00外形線
100
AcDbLine
 10
94.47189213417379
 20
269.6933049866119
 30
0.0
 11
76.4718921341738
 21
269.6933049866119
 31
0.0
  0
LINE
  5
929
330
900
100
AcDbEntity
  8
01細線
100
AcDbLine
 10
82.0718921341737
 20
250.4295325708932
 30
0.0
 11
82.0718921341737
 21
248.6267494013993
 31
0.0
  0
ARC
  5
92A
330
900
100
AcDbEntity
  8
01細線
100
AcDbCircle
 10
80.87189213417378
 20
250.4295325708932
 30
0.0
 40
1.199999999999999
100
AcDbArc
 50
285.4660099534188
 51
0.0
  0
LINE
  5
92B
330
900
100
AcDbEntity
  8
01細線
100
AcDbLine
 10
82.0718921341737
 20
245.4517779057358
 30
0.0
 11
82.0718921341737
 21
244.6467996529729
 31
0.0
  0
LINE
  5
92C
330
900
100
AcDbEntity
  8
01細線
100
AcDbLine
 10
82.0718921341737
 20
240.6668499045463
 30
0.0
 11
82.0718921341737
 21
239.8634953557322
 31
0.0
  0
LINE
  5
92D
330
900
100
AcDbEntity
  8
01細線
100
AcDbLine
 10
82.87189213417377
 20
240.6668499045463
 30
0.0
 11
82.87189213417377
 21
239.8634953557322
 31
0.0
  0
LINE
  5
92E
330
900
100
AcDbEntity
  8
01細線
100
AcDbLine
 10
82.87189213417377
 20
246.441225677645
 30
0.0
 11
82.87189213417377
 21
244.6467996529729
 31
0.0
  0
ARC
  5
92F
330
900
100
AcDbEntity
  8
01細線
100
AcDbCircle
 10
84.47189213417379
 20
246.441225677645
 30
0.0
 40
1.599999999999999
100
AcDbArc
 50
180.0
 51
225.7322244204353
  0
LINE
  5
930
330
900
100
AcDbEntity
  8
01細線
100
AcDbLine
 10
82.87189213417377
 20
250.4295325708932
 30
0.0
 11
82.87189213417377
 21
248.6267494013993
 31
0.0
  0
ARC
  5
931
330
900
100
AcDbEntity
  8
01細線
100
AcDbCircle
 10
84.07189213417382
 20
250.4295325708932
 30
0.0
 40
1.199999999999999
100
AcDbArc
 50
180.0
 51
254.5339900465803
  0
ARC
  5
932
330
900
100
AcDbEntity
  8
01細線
100
AcDbCircle
 10
82.4718921341738
 20
244.6467996529729
 30
0.0
 40
4.799999999999999
100
AcDbArc
 50
105.4660099534188
 51
260.4059317731417
  0
ARC
  5
933
330
900
100
AcDbEntity
  8
01細線
100
AcDbCircle
 10
82.4718921341738
 20
244.6467996529729
 30
0.0
 40
4.799999999999999
100
AcDbArc
 50
265.2198081527987
 51
274.7801918472013
  0
ARC
  5
934
330
900
100
AcDbEntity
  8
01細線
100
AcDbCircle
 10
82.4718921341738
 20
244.6467996529729
 30
0.0
 40
4.799999999999999
100
AcDbArc
 50
279.5940682268583
 51
74.53399004658115
  0
ARC
  5
935
330
900
100
AcDbEntity
  8
01細線
100
AcDbCircle
 10
82.4718921341738
 20
244.6467996529729
 30
0.0
 40
3.999999999999992
100
AcDbArc
 50
185.7391704772644
 51
258.4630409671885
  0
ARC
  5
936
330
900
100
AcDbEntity
  8
01細線
100
AcDbCircle
 10
82.4718921341738
 20
244.6467996529729
 30
0.0
 40
3.999999999999992
100
AcDbArc
 50
264.2608295227319
 51
275.7391704772681
  0
ARC
  5
937
330
900
100
AcDbEntity
  8
01細線
100
AcDbCircle
 10
82.4718921341738
 20
244.6467996529729
 30
0.0
 40
3.999999999999992
100
AcDbArc
 50
297.8113483863879
 51
84.26082952273189
  0
ARC
  5
938
330
900
100
AcDbEntity
  8
01細線
100
AcDbCircle
 10
82.4718921341738
 20
244.6467996529729
 30
0.0
 40
3.999999999999992
100
AcDbArc
 50
95.7391704772681
 51
174.18833826493
  0
LINE
  5
939
330
900
100
AcDbEntity
  8
01細線
100
AcDbLine
 10
78.49194238574739
 20
244.2467996529728
 30
0.0
 11
82.07189213417382
 21
244.6467996529729
 31
0.0
  0
LINE
  5
93A
330
900
100
AcDbEntity
  8
01細線
100
AcDbLine
 10
78.4924516555335
 20
245.0518348081867
 30
0.0
 11
82.07189213417382
 21
245.4517779057358
 31
0.0
  0
LINE
  5
93B
330
900
100
AcDbEntity
  8
01細線
100
AcDbLine
 10
82.87189213417377
 20
239.4467996529728
 30
0.0
 11
82.07189213417382
 21
239.4467996529728
 31
0.0
  0
LINE
  5
93C
330
900
100
AcDbEntity
  8
01細線
100
AcDbLine
 10
81.87189213417388
 20
237.4467996529728
 30
0.0
 11
83.07189213417371
 21
237.4467996529728
 31
0.0
  0
LINE
  5
93D
330
900
100
AcDbEntity
  8
01細線
100
AcDbLine
 10
83.07189213417371
 20
237.4467996529728
 30
0.0
 11
82.87189213417377
 21
239.4467996529728
 31
0.0
  0
LINE
  5
93E
330
900
100
AcDbEntity
  8
01細線
100
AcDbLine
 10
82.0718921341737
 20
239.4467996529729
 30
0.0
 11
81.87189213417388
 21
237.4467996529728
 31
0.0
  0
LINE
  5
93F
330
900
100
AcDbEntity
  8
01細線
100
AcDbLine
 10
83.27189213417375
 20
240.7276160645198
 30
0.0
 11
83.27189213417375
 21
239.9139358264931
 31
0.0
  0
LINE
  5
940
330
900
100
AcDbEntity
  8
01細線
100
AcDbLine
 10
81.67189213417385
 20
240.7276160645197
 30
0.0
 11
81.67189213417385
 21
239.9139358264931
 31
0.0
  0
ARC
  5
941
330
900
100
AcDbEntity
  8
01細線
100
AcDbCircle
 10
80.5630212746654
 20
242.431147298899
 30
0.0
 40
3.199999999999999
100
AcDbArc
 50
327.8353895847703
 51
43.81970515961169
  0
ARC
  5
942
330
900
100
AcDbEntity
  8
01細線
100
AcDbCircle
 10
80.5630212746654
 20
242.431147298899
 30
0.0
 40
4.0
100
AcDbArc
 50
340.6962906721045
 51
45.73222442043536
  0
ARC
  5
943
330
900
100
AcDbEntity
  8
01細線
100
AcDbCircle
 10
76.97830711964264
 20
235.1973206656249
 30
0.0
 40
5.599999999999999
100
AcDbArc
 50
31.22145554113681
 51
97.76290501584426
  0
ARC
  5
944
330
900
100
AcDbEntity
  8
01細線
100
AcDbCircle
 10
81.15547714870501
 20
243.395478447944
 30
0.0
 40
5.599999999999999
100
AcDbArc
 50
208.2370949841589
 51
274.7785444588645
  0
LINE
  5
945
330
900
100
AcDbEntity
  8
01細線
100
AcDbLine
 10
81.62198336206358
 20
237.8149433523732
 30
0.0
 11
76.2218921341738
 21
240.7459994605962
 31
0.0
  0
LINE
  5
946
330
900
100
AcDbEntity
  8
01細線
100
AcDbLine
 10
76.2218921341738
 20
240.7459994605962
 30
0.0
 11
81.76726032198018
 21
238.1000654401135
 31
0.0
  0
ARC
  5
947
330
900
100
AcDbEntity
  8
01細線
100
AcDbCircle
 10
87.96547714870497
 20
235.1973206656249
 30
0.0
 40
5.599999999999999
100
AcDbArc
 50
82.23709498415574
 51
148.7785444588631
  0
ARC
  5
948
330
900
100
AcDbEntity
  8
01細線
100
AcDbCircle
 10
83.78830711964258
 20
243.395478447944
 30
0.0
 40
5.599999999999999
100
AcDbArc
 50
265.2214555411354
 51
331.762905015841
  0
LINE
  5
949
330
900
100
AcDbEntity
  8
01細線
100
AcDbLine
 10
83.32180090628401
 20
237.8149433523732
 30
0.0
 11
88.7218921341738
 21
240.7459994605962
 31
0.0
  0
LINE
  5
94A
330
900
100
AcDbEntity
  8
01細線
100
AcDbLine
 10
88.7218921341738
 20
240.7459994605962
 30
0.0
 11
83.17652394636741
 21
238.1000654401135
 31
0.0
  0
ARC
  5
94B
330
900
100
AcDbEntity
  8
00外形線
100
AcDbCircle
 10
102.1718921341738
 20
227.9491684457763
 30
0.0
 40
2.0
100
AcDbArc
 50
270.0
 51
3.549325405318481
1001
GENIUS_GENOBJ-N-FIL_13
1002
{
1000
OWNER
1000
GEN
1002
}
1001
GENIUS_GENODEF_13
1002
{
1000
HIER
1070
     0
1002
}
1002
{
1000
MANEDIT
1070
     0
1002
}
1002
{
1000
NOSEL
1070
     0
1002
}
1002
{
1000
BEHIND
1070
     0
1002
}
1002
{
1000
OTHER
1070
     0
1002
}
1002
{
1000
REACTOR
1002
}
  0
ARC
  5
94C
330
900
100
AcDbEntity
  8
00外形線
100
AcDbCircle
 10
106.1642196238999
 20
228.1967996529727
 30
0.0
 40
2.0
100
AcDbArc
 50
90.0
 51
183.5493254053185
1001
GENIUS_GENODEF_13
1002
{
1000
HIER
1070
     0
1002
}
1002
{
1000
MANEDIT
1070
     0
1002
}
1002
{
1000
NOSEL
1070
     0
1002
}
1002
{
1000
BEHIND
1070
     0
1002
}
1002
{
1000
OTHER
1070
     0
1002
}
1002
{
1000
REACTOR
1002
}
1001
GENIUS_GENOBJ-N-FIL_13
1002
{
1000
OWNER
1000
GEN
1002
}
  0
LINE
  5
94D
330
900
100
AcDbEntity
  8
00外形線
100
AcDbLine
 10
106.1640719898416
 20
257.1967996529728
 30
0.0
 11
122.1918225670779
 21
257.1967996529728
 31
0.0
  0
ARC
  5
94E
330
900
100
AcDbEntity
  8
00外形線
100
AcDbCircle
 10
122.1918225670779
 20
259.1967996529728
 30
0.0
 40
2.0
100
AcDbArc
 50
270.0
 51
314.9999999999995
1001
GENIUS_GENODEF_13
1002
{
1000
HIER
1070
     0
1002
}
1002
{
1000
MANEDIT
1070
     0
1002
}
1002
{
1000
NOSEL
1070
     0
1002
}
1002
{
1000
BEHIND
1070
     0
1002
}
1002
{
1000
OTHER
1070
     0
1002
}
1002
{
1000
REACTOR
1002
}
1001
GENIUS_GENOBJ-N-FIL_13
1002
{
1000
OWNER
1000
GEN
1002
}
  0
LINE
  5
94F
330
900
100
AcDbEntity
  8
00外形線
100
AcDbLine
 10
106.1642196238999
 20
230.1967996529728
 30
0.0
 11
122.1982338092924
 21
230.1967996529728
 31
0.0
  0
LINE
  5
950
330
900
100
AcDbEntity
  8
00外形線
100
AcDbLine
 10
104.1679820620077
 20
259.3217996529728
 30
0.0
 11
104.1679820620077
 21
243.6967996529728
 31
0.0
  0
LINE
  5
951
330
900
100
AcDbEntity
  8
00外形線
100
AcDbLine
 10
104.1679820620077
 20
228.0717996529728
 30
0.0
 11
104.1679820620077
 21
243.6967996529728
 31
0.0
  0
LINE
  5
952
330
900
100
AcDbEntity
  8
00外形線
100
AcDbLine
 10
74.4718921341738
 20
250.9467996529728
 30
0.0
 11
90.47189213417381
 21
250.9467996529728
 31
0.0
  0
LINE
  5
953
330
900
100
AcDbEntity
  8
00外形線
100
AcDbLine
 10
90.47189213417381
 20
250.9467996529728
 30
0.0
 11
90.47189213417381
 21
236.4467996529728
 31
0.0
  0
LINE
  5
954
330
900
100
AcDbEntity
  8
00外形線
100
AcDbLine
 10
90.47189213417381
 20
236.4467996529728
 30
0.0
 11
74.4718921341738
 21
236.4467996529728
 31
0.0
  0
LINE
  5
955
330
900
100
AcDbEntity
  8
00外形線
100
AcDbLine
 10
74.4718921341738
 20
236.4467996529728
 30
0.0
 11
74.4718921341738
 21
250.9467996529728
 31
0.0
  0
ARC
  5
956
330
900
100
AcDbEntity
  8
00外形線
100
AcDbCircle
 10
122.1982338092924
 20
228.1967996529728
 30
0.0
 40
2.0
100
AcDbArc
 50
45.00000000000057
 51
90.0
1001
GENIUS_GENODEF_13
1002
{
1000
HIER
1070
     0
1002
}
1002
{
1000
MANEDIT
1070
     0
1002
}
1002
{
1000
NOSEL
1070
     0
1002
}
1002
{
1000
BEHIND
1070
     0
1002
}
1002
{
1000
OTHER
1070
     0
1002
}
1002
{
1000
REACTOR
1002
}
1001
GENIUS_GENOBJ-N-FIL_13
1002
{
1000
OWNER
1000
GEN
1002
}
  0
LINE
  5
957
330
900
100
AcDbEntity
  8
00外形線
100
AcDbLine
 10
122.9571894318081
 20
257.3490405879502
 30
0.0
 11
122.9571894318081
 21
243.6967996529728
 31
0.0
  0
LINE
  5
958
330
900
100
AcDbEntity
  8
00外形線
100
AcDbLine
 10
122.9571894318081
 20
230.0445587179954
 30
0.0
 11
122.9571894318081
 21
243.6967996529728
 31
0.0
  0
LINE
  5
959
330
900
100
AcDbEntity
  8
00外形線
100
AcDbLine
 10
78.47189213417379
 20
270.1900993655047
 30
0.0
 11
78.47189213417379
 21
269.6933049866119
 31
0.0
  0
LINE
  5
95A
330
900
100
AcDbEntity
  8
00外形線
100
AcDbLine
 10
126.2734553129314
 20
260.45000527408
 30
0.0
 11
123.6060361294509
 21
257.7825860905997
 31
0.0
  0
LINE
  5
95B
330
900
100
AcDbEntity
  8
00外形線
100
AcDbLine
 10
126.2734553129313
 20
226.9500052740801
 30
0.0
 11
123.6124473716655
 21
229.6110132153459
 31
0.0
  0
ENDBLK
  5
95C
330
900
100
AcDbEntity
  8
0
100
AcDbBlockEnd
  0
BLOCK
  5
95E
330
95D
100
AcDbEntity
  8
0
100
AcDbBlockBegin
  2
BN-30外観
 70
     0
 10
0.0
 20
0.0
 30
0.0
  3
BN-30外観
  1

  0
INSERT
  5
95F
330
95D
100
AcDbEntity
  8
00外形線
100
AcDbBlockReference
  2
BM-12エンドキャップ
 10
-4.302101752058433
 20
-33.83424482127208
 30
0.0
  0
INSERT
  5
960
330
95D
100
AcDbEntity
  8
00外形線
100
AcDbBlockReference
  2
BN-30Nユニオンナット
 10
18.19743291099826
 20
-33.83424482127208
 30
0.0
  0
INSERT
  5
961
330
95D
100
AcDbEntity
  8
00外形線
100
AcDbBlockReference
  2
ハンドル
 10
-4.302101752058433
 20
-33.83424482127208
 30
0.0
  0
INSERT
  5
962
330
95D
100
AcDbEntity
  8
00外形線
100
AcDbBlockReference
  2
BN-30N本体(納入品図面用)
 10
120.1637737461076
 20
-41.94630766742801
 30
0.0
  0
ENDBLK
  5
963
330
95D
100
AcDbEntity
  8
0
100
AcDbBlockEnd
  0
BLOCK
  5
98F
330
98E
100
AcDbEntity
  8
0
100
AcDbBlockBegin
  2
32S
 70
     0
 10
0.0
 20
0.0
 30
0.0
  3
32S
  1

  0
LINE
  5
990
330
98E
100
AcDbEntity
  8
05寸法線
  6
Continuous
370
    20
100
AcDbLine
 10
152.5711219549022
 20
181.429484536138
 30
0.0
 11
151.6711219549022
 21
181.9490997784089
 31
0.0
  0
LINE
  5
991
330
98E
100
AcDbEntity
  8
05寸法線
  6
Continuous
370
    20
100
AcDbLine
 10
152.5711219549022
 20
181.429484536138
 30
0.0
 11
151.6711219549022
 21
180.9098692938676
 31
0.0
  0
LINE
  5
992
330
98E
100
AcDbEntity
  8
05寸法線
  6
Continuous
370
    20
100
AcDbLine
 10
151.6711219549022
 20
180.9098692938676
 30
0.0
 11
151.6711219549022
 21
181.9490997784089
 31
0.0
  0
ENDBLK
  5
993
330
98E
100
AcDbEntity
  8
0
100
AcDbBlockEnd
  0
BLOCK
  5
C71
330
C50
100
AcDbEntity
  8
0
100
AcDbBlockBegin
  2
A$C10BF5334
 70
     0
 10
0.0
 20
0.0
 30
0.0
  3
A$C10BF5334
  1

  0
CIRCLE
  5
C51
330
C50
100
AcDbEntity
  8
00外形線
100
AcDbCircle
 10
21.00000021113055
 20
9.999999849481696
 30
0.0
 40
10.0
  0
CIRCLE
  5
C52
330
C50
100
AcDbEntity
  8
00外形線
100
AcDbCircle
 10
21.00000021113055
 20
9.999999849481696
 30
0.0
 40
7.0
  0
CIRCLE
  5
C53
330
C50
100
AcDbEntity
  8
00外形線
100
AcDbCircle
 10
21.00000021113055
 20
9.999999849481696
 30
0.0
 40
2.0
  0
LINE
  5
C54
330
C50
100
AcDbEntity
  8
00外形線
100
AcDbLine
 10
23.25000021113055
 20
16.62853664126311
 30
0.0
 11
23.25000021113055
 21
13.8971141665117
 31
0.0
  0
LINE
  5
C55
330
C50
100
AcDbEntity
  8
00外形線
100
AcDbLine
 10
14.37146341934914
 20
7.749999849481696
 30
0.0
 11
17.10288589410061
 21
7.749999849481696
 31
0.0
  0
LINE
  5
C56
330
C50
100
AcDbEntity
  8
00外形線
100
AcDbLine
 10
18.0019036010251
 20
13.35580328777695
 30
0.0
 11
18.0019036010251
 21
6.644196411186442
 31
0.0
  0
LINE
  5
C57
330
C50
100
AcDbEntity
  8
00外形線
100
AcDbLine
 10
24.00190360102533
 20
13.35239839943637
 30
0.0
 11
24.00190360102533
 21
6.647601299527025
 31
0.0
  0
LINE
  5
C58
330
C50
100
AcDbEntity
  8
00外形線
100
AcDbLine
 10
1.000000211130327
 20
15.99999984948169
 30
0.0
 11
13.00000021113055
 21
15.99999984948169
 31
0.0
  0
LINE
  5
C59
330
C50
100
AcDbEntity
  8
00外形線
100
AcDbLine
 10
2.500000211130327
 20
13.49999984948169
 30
0.0
 11
11.63250321353291
 21
13.49999984948169
 31
0.0
  0
LINE
  5
C5A
330
C50
100
AcDbEntity
  8
00外形線
100
AcDbLine
 10
29.00000021113056
 20
15.99999984948169
 30
0.0
 11
41.00000021113055
 21
15.99999984948169
 31
0.0
  0
LINE
  5
C5B
330
C50
100
AcDbEntity
  8
00外形線
100
AcDbLine
 10
30.36749720872814
 20
13.49999984948169
 30
0.0
 11
39.50000021113055
 21
13.49999984948169
 31
0.0
  0
LINE
  5
C5C
330
C50
100
AcDbEntity
  8
00外形線
100
AcDbLine
 10
1.000000211130327
 20
3.999999849481696
 30
0.0
 11
13.00000021113055
 21
3.999999849481696
 31
0.0
  0
ARC
  5
C5D
330
C50
100
AcDbEntity
  8
00外形線
100
AcDbCircle
 10
1.000000211130327
 20
4.999999849481696
 30
0.0
 40
1.0
100
AcDbArc
 50
180.0
 51
270.0
1001
GENIUS_GENOBJ-N-FIL_13
1002
{
1000
OWNER
1000
GEN
1002
}
1001
GENIUS_GENODEF_13
1002
{
1000
HIER
1070
     0
1002
}
1002
{
1000
MANEDIT
1070
     0
1002
}
1002
{
1000
NOSEL
1070
     0
1002
}
1002
{
1000
BEHIND
1070
     0
1002
}
1002
{
1000
OTHER
1070
     0
1002
}
1002
{
1000
REACTOR
1002
}
  0
LINE
  5
C5E
330
C50
100
AcDbEntity
  8
00外形線
100
AcDbLine
 10
2.500000211130327
 20
6.499999849481639
 30
0.0
 11
11.63250321353297
 21
6.499999849481696
 31
0.0
  0
LINE
  5
C5F
330
C50
100
AcDbEntity
  8
00外形線
100
AcDbLine
 10
29.00000021113056
 20
3.999999849481696
 30
0.0
 11
41.00000021113055
 21
3.999999849481696
 31
0.0
  0
ARC
  5
C60
330
C50
100
AcDbEntity
  8
00外形線
100
AcDbCircle
 10
41.00000021113055
 20
4.999999849481696
 30
0.0
 40
1.0
100
AcDbArc
 50
270.0
 51
0.0
1001
GENIUS_GENODEF_13
1002
{
1000
HIER
1070
     0
1002
}
1002
{
1000
MANEDIT
1070
     0
1002
}
1002
{
1000
NOSEL
1070
     0
1002
}
1002
{
1000
BEHIND
1070
     0
1002
}
1002
{
1000
OTHER
1070
     0
1002
}
1002
{
1000
REACTOR
1002
}
1001
GENIUS_GENOBJ-N-FIL_13
1002
{
1000
OWNER
1000
GEN
1002
}
  0
LINE
  5
C61
330
C50
100
AcDbEntity
  8
00外形線
100
AcDbLine
 10
30.36749720872814
 20
6.499999849481696
 30
0.0
 11
39.50000021113055
 21
6.499999849481753
 31
0.0
  0
LINE
  5
C62
330
C50
100
AcDbEntity
  8
00外形線
100
AcDbLine
 10
0.0000002111303274
 20
14.99999984948169
 30
0.0
 11
0.0000002111303274
 21
4.999999849481696
 31
0.0
  0
ARC
  5
C63
330
C50
100
AcDbEntity
  8
00外形線
100
AcDbCircle
 10
1.000000211130327
 20
14.99999984948169
 30
0.0
 40
1.0
100
AcDbArc
 50
90.0
 51
180.0
1001
GENIUS_GENODEF_13
1002
{
1000
HIER
1070
     0
1002
}
1002
{
1000
MANEDIT
1070
     0
1002
}
1002
{
1000
NOSEL
1070
     0
1002
}
1002
{
1000
BEHIND
1070
     0
1002
}
1002
{
1000
OTHER
1070
     0
1002
}
1002
{
1000
REACTOR
1002
}
1001
GENIUS_GENOBJ-N-FIL_13
1002
{
1000
OWNER
1000
GEN
1002
}
  0
LINE
  5
C64
330
C50
100
AcDbEntity
  8
00外形線
100
AcDbLine
 10
2.500000211130327
 20
13.49999984948169
 30
0.0
 11
2.500000211130327
 21
6.499999849481696
 31
0.0
  0
LINE
  5
C65
330
C50
100
AcDbEntity
  8
00外形線
100
AcDbLine
 10
42.00000021113055
 20
14.99999984948169
 30
0.0
 11
42.00000021113055
 21
4.999999849481696
 31
0.0
  0
ARC
  5
C66
330
C50
100
AcDbEntity
  8
00外形線
100
AcDbCircle
 10
41.00000021113055
 20
14.99999984948169
 30
0.0
 40
1.0
100
AcDbArc
 50
0.0
 51
90.0
1001
GENIUS_GENOBJ-N-FIL_13
1002
{
1000
OWNER
1000
GEN
1002
}
1001
GENIUS_GENODEF_13
1002
{
1000
HIER
1070
     0
1002
}
1002
{
1000
MANEDIT
1070
     0
1002
}
1002
{
1000
NOSEL
1070
     0
1002
}
1002
{
1000
BEHIND
1070
     0
1002
}
1002
{
1000
OTHER
1070
     0
1002
}
1002
{
1000
REACTOR
1002
}
  0
LINE
  5
C67
330
C50
100
AcDbEntity
  8
00外形線
100
AcDbLine
 10
39.50000021113055
 20
13.49999984948169
 30
0.0
 11
39.50000021113055
 21
6.499999849481753
 31
0.0
  0
LINE
  5
C68
330
C50
100
AcDbEntity
  8
00外形線
100
AcDbLine
 10
8.632503213532913
 20
6.499999849481753
 30
0.0
 11
8.632503213532913
 21
8.775254978090117
 31
0.0
  0
LINE
  5
C69
330
C50
100
AcDbEntity
  8
00外形線
100
AcDbLine
 10
8.632503213532913
 20
11.22474472087327
 30
0.0
 11
8.632503213532913
 21
13.49999984948169
 31
0.0
  0
ARC
  5
C6A
330
C50
100
AcDbEntity
  8
00外形線
100
AcDbCircle
 10
7.382503213532913
 20
9.999999849481696
 30
0.0
 40
1.75
100
AcDbArc
 50
315.5846914028066
 51
44.41530859719341
  0
LINE
  5
C6B
330
C50
100
AcDbEntity
  8
00外形線
100
AcDbLine
 10
33.3674972087282
 20
6.499999849481753
 30
0.0
 11
33.3674972087282
 21
8.775254978090117
 31
0.0
  0
LINE
  5
C6C
330
C50
100
AcDbEntity
  8
00外形線
100
AcDbLine
 10
33.3674972087282
 20
11.22474472087327
 30
0.0
 11
33.3674972087282
 21
13.49999984948169
 31
0.0
  0
ARC
  5
C6D
330
C50
100
AcDbEntity
  8
00外形線
100
AcDbCircle
 10
34.6174972087282
 20
9.999999849481696
 30
0.0
 40
1.75
100
AcDbArc
 50
135.5846914028066
 51
224.4153085971934
  0
ARC
  5
C6E
330
C50
100
AcDbEntity
  8
00外形線
100
AcDbCircle
 10
21.00000021113055
 20
9.999999849481696
 30
0.0
 40
4.5
100
AcDbArc
 50
210.0000000000005
 51
131.7778088623164
  0
ENDBLK
  5
C72
330
C50
100
AcDbEntity
  8
0
100
AcDbBlockEnd
  0
BLOCK
  5
D13
330
CFE
100
AcDbEntity
  8
0
100
AcDbBlockBegin
  2
A$C2B061C63
 70
     0
 10
0.0
 20
0.0
 30
0.0
  3
A$C2B061C63
  1

  0
LINE
  5
CFF
330
CFE
100
AcDbEntity
  8
0
  6
Continuous
 62
     7
370
    25
100
AcDbLine
 10
21.34847176219495
 20
37.96507337085007
 30
0.0
 11
6.651533305201837
 21
29.47979199644169
 31
0.0
  0
LINE
  5
D00
330
CFE
100
AcDbEntity
  8
0
  6
Continuous
 62
     7
370
    25
100
AcDbLine
 10
5.500002533528345
 20
27.4852821934243
 30
0.0
 11
5.500002533528345
 21
10.51471944460778
 31
0.0
  0
LINE
  5
D01
330
CFE
100
AcDbEntity
  8
0
  6
Continuous
 62
     7
370
    25
100
AcDbLine
 10
6.651533305201837
 20
8.52020964159027
 30
0.0
 11
21.34847176219472
 21
0.0349282671819822
 31
0.0
  0
LINE
  5
D02
330
CFE
100
AcDbEntity
  8
0
  6
Continuous
 62
     7
370
    25
100
AcDbLine
 10
23.6515333055417
 20
0.0349282671819822
 30
0.0
 11
38.34847176253481
 21
8.52020964159027
 31
0.0
  0
LINE
  5
D03
330
CFE
100
AcDbEntity
  8
0
  6
Continuous
 62
     7
370
    25
100
AcDbLine
 10
39.50000253420837
 20
10.51471944460778
 30
0.0
 11
39.50000253420837
 21
27.4852821934243
 31
0.0
  0
LINE
  5
D04
330
CFE
100
AcDbEntity
  8
0
  6
Continuous
 62
     7
370
    25
100
AcDbLine
 10
38.34847176253481
 20
29.47979199644169
 30
0.0
 11
23.6515333055417
 21
37.96507337085007
 31
0.0
  0
CIRCLE
  5
D05
330
CFE
100
AcDbEntity
  8
0
  6
Continuous
 62
     7
370
    25
100
AcDbCircle
 10
22.50000253386821
 20
19.00000081901587
 30
0.0
 40
19.00000000038
  0
LINE
  5
D06
330
CFE
100
AcDbEntity
  8
0
  6
Continuous
 62
     7
370
    25
100
AcDbLine
 10
13.50000253368841
 20
39.00000081941599
 30
0.0
 11
13.5000025336883
 21
35.73320135003218
 31
0.0
  0
LINE
  5
D07
330
CFE
100
AcDbEntity
  8
0
  6
Continuous
 62
     7
370
    25
100
AcDbLine
 10
31.50000253404829
 20
39.00000081941599
 30
0.0
 11
31.50000253404858
 21
35.73320135003189
 31
0.0
  0
CIRCLE
  5
D08
330
CFE
100
AcDbEntity
  8
0
  6
Continuous
 62
     7
370
    25
100
AcDbCircle
 10
22.50000253386821
 20
19.00000081901587
 30
0.0
 40
8.150000000162998
  0
CIRCLE
  5
D09
330
CFE
100
AcDbEntity
  8
0
  6
Continuous
 62
     7
370
    25
100
AcDbCircle
 10
22.50000253386821
 20
19.00000081901587
 30
0.0
 40
12.01200000024024
  0
CIRCLE
  5
D0A
330
CFE
100
AcDbEntity
  8
0
  6
Continuous
 62
     7
370
    25
100
AcDbCircle
 10
22.50000253386821
 20
19.00000081901587
 30
0.0
 40
17.00000000034
  0
LINE
  5
D0B
330
CFE
100
AcDbEntity
  8
0
  6
Continuous
 62
     7
370
    25
100
AcDbLine
 10
45.00000253431818
 20
39.00000081941579
 30
0.0
 11
0.0000025334184102
 21
39.00000081941579
 31
0.0
  0
LINE
  5
D0C
330
CFE
100
AcDbEntity
  8
0
  6
Continuous
 62
     3
370
    25
100
AcDbLine
 10
24.50000253390846
 20
39.00000081941599
 30
0.0
 11
24.50000253390829
 21
37.87450868578097
 31
0.0
  0
LINE
  5
D0D
330
CFE
100
AcDbEntity
  8
0
  6
Continuous
 62
     3
370
    25
100
AcDbLine
 10
20.50000253382865
 20
39.00000081941599
 30
0.0
 11
20.50000253382831
 21
37.87450868578097
 31
0.0
  0
CIRCLE
  5
D0E
330
CFE
100
AcDbEntity
  8
0
  6
Continuous
 62
     4
370
    25
100
AcDbCircle
 10
22.50000253386821
 20
19.00000081901587
 30
0.0
 40
13.21150000026423
  0
POINT
  5
D0F
330
CFE
100
AcDbEntity
  8
0
  6
Continuous
 62
     4
100
AcDbPoint
 10
22.50000253386821
 20
39.00000081941599
 30
0.0
  0
LINE
  5
D10
330
CFE
100
AcDbEntity
  8
0
  6
CENTER
 62
     4
370
    25
100
AcDbLine
 10
43.88218501935603
 20
19.00000081901587
 30
0.0
 11
1.614529912084947
 21
19.00000081901587
 31
0.0
  0
LINE
  5
D11
330
CFE
100
AcDbEntity
  8
0
  6
Continuous
 62
     2
370
    25
100
AcDbLine
 10
24.10000253390024
 20
37.91979981310038
 30
0.0
 11
24.10000253390024
 21
39.00000081941599
 31
0.0
  0
LINE
  5
D12
330
CFE
100
AcDbEntity
  8
0
  6
Continuous
 62
     2
370
    25
100
AcDbLine
 10
20.90000253383647
 20
37.91979981310038
 30
0.0
 11
20.90000253383647
 21
39.00000081941599
 31
0.0
  0
ENDBLK
  5
D14
330
CFE
100
AcDbEntity
  8
0
100
AcDbBlockEnd
  0
BLOCK
  5
DE0
330
DDF
100
AcDbEntity
  8
0
100
AcDbBlockBegin
  2
DC_GROUP_12
 70
     0
 10
0.0
 20
0.0
 30
0.0
  3
DC_GROUP_12
  1

  0
ARC
  5
DE1
330
DDF
100
AcDbEntity
  8
0
  6
Continuous
 62
     3
370
    25
100
AcDbCircle
 10
2.768930884412569
 20
103.0
 30
0.0
 40
0.8660254037844385
100
AcDbArc
 50
30.0
 51
180.0
  0
ARC
  5
DE2
330
DDF
100
AcDbEntity
  8
0
  6
Continuous
 62
     3
370
    25
100
AcDbCircle
 10
4.268930884412569
 20
103.8660254037844
 30
0.0
 40
0.8660254037844385
100
AcDbArc
 50
210.0
 51
360.0
  0
ENDBLK
  5
DE3
330
DDF
100
AcDbEntity
  8
0
100
AcDbBlockEnd
  0
BLOCK
  5
DE5
330
DE4
100
AcDbEntity
  8
0
100
AcDbBlockBegin
  2
DC_GROUP_13
 70
     0
 10
0.0
 20
0.0
 30
0.0
  3
DC_GROUP_13
  1

  0
ARC
  5
DE6
330
DE4
100
AcDbEntity
  8
0
  6
Continuous
 62
     3
370
    25
100
AcDbCircle
 10
18.38472919317867
 20
92.15671495401977
 30
0.0
 40
0.8660254037844385
100
AcDbArc
 50
330.0000000000001
 51
480.0
  0
ARC
  5
DE7
330
DE4
100
AcDbEntity
  8
0
  6
Continuous
 62
     3
370
    25
100
AcDbCircle
 10
19.88472919317867
 20
91.29068955023534
 30
0.0
 40
0.8660254037844385
100
AcDbArc
 50
150.0
 51
300.0
  0
ENDBLK
  5
DE8
330
DE4
100
AcDbEntity
  8
0
100
AcDbBlockEnd
  0
BLOCK
  5
DEA
330
DE9
100
AcDbEntity
  8
0
100
AcDbBlockBegin
  2
DC_GROUP_14
 70
     0
 10
0.0
 20
0.0
 30
0.0
  3
DC_GROUP_14
  1

  0
ARC
  5
DEB
330
DE9
100
AcDbEntity
  8
0
  6
Continuous
 62
     3
370
    25
100
AcDbCircle
 10
17.95288577727813
 20
71.09531030872641
 30
0.0
 40
0.8660254037844385
100
AcDbArc
 50
270.0000000000005
 51
420.0000000000005
  0
ARC
  5
DEC
330
DE9
100
AcDbEntity
  8
0
  6
Continuous
 62
     3
370
    25
100
AcDbCircle
 10
17.95288577727815
 20
69.36325950115755
 30
0.0
 40
0.8660254037844385
100
AcDbArc
 50
90.00000000000053
 51
240.0000000000005
  0
ENDBLK
  5
DED
330
DE9
100
AcDbEntity
  8
0
100
AcDbBlockEnd
  0
BLOCK
  5
DEF
330
DEE
100
AcDbEntity
  8
0
100
AcDbBlockBegin
  2
DC_GROUP_15
 70
     0
 10
0.0
 20
0.0
 30
0.0
  3
DC_GROUP_15
  1

  0
ARC
  5
DF0
330
DEE
100
AcDbEntity
  8
0
  6
Continuous
 62
     3
370
    25
100
AcDbCircle
 10
-2.062632182503502
 20
61.00000000000001
 30
0.0
 40
0.8660254037844385
100
AcDbArc
 50
210.0
 51
360.0
  0
ARC
  5
DF1
330
DEE
100
AcDbEntity
  8
0
  6
Continuous
 62
     3
370
    25
100
AcDbCircle
 10
-3.562632182503502
 20
60.13397459621557
 30
0.0
 40
0.8660254037844385
100
AcDbArc
 50
29.99999999999997
 51
180.0
  0
ENDBLK
  5
DF2
330
DEE
100
AcDbEntity
  8
0
100
AcDbBlockEnd
  0
BLOCK
  5
DF4
330
DF3
100
AcDbEntity
  8
0
100
AcDbBlockBegin
  2
DC_GROUP_16
 70
     0
 10
0.0
 20
0.0
 30
0.0
  3
DC_GROUP_16
  1

  0
ARC
  5
DF5
330
DF3
100
AcDbEntity
  8
0
  6
Continuous
 62
     3
370
    25
100
AcDbCircle
 10
-18.62799184162877
 20
72.26462831267958
 30
0.0
 40
0.8660254037844383
100
AcDbArc
 50
149.9999999999998
 51
299.9999999999999
  0
ARC
  5
DF6
330
DF3
100
AcDbEntity
  8
0
  6
Continuous
 62
     3
370
    25
100
AcDbCircle
 10
-20.12799184162878
 20
73.13065371646402
 30
0.0
 40
0.8660254037844383
100
AcDbArc
 50
329.9999999999998
 51
479.9999999999998
  0
ENDBLK
  5
DF7
330
DF3
100
AcDbEntity
  8
0
100
AcDbBlockEnd
  0
BLOCK
  5
DF9
330
DF8
100
AcDbEntity
  8
0
100
AcDbBlockBegin
  2
DC_GROUP_17
 70
     0
 10
0.0
 20
0.0
 30
0.0
  3
DC_GROUP_17
  1

  0
ARC
  5
DFA
330
DF8
100
AcDbEntity
  8
0
  6
Continuous
 62
     3
370
    25
100
AcDbCircle
 10
-17.40359981150147
 20
93.85608089188332
 30
0.0
 40
0.8660254037844385
100
AcDbArc
 50
89.99999999999998
 51
239.9999999999999
  0
ARC
  5
DFB
330
DF8
100
AcDbEntity
  8
0
  6
Continuous
 62
     3
370
    25
100
AcDbCircle
 10
-17.40359981150147
 20
95.58813169945221
 30
0.0
 40
0.8660254037844385
100
AcDbArc
 50
269.9999999999999
 51
419.9999999999999
  0
ENDBLK
  5
DFC
330
DF8
100
AcDbEntity
  8
0
100
AcDbBlockEnd
  0
BLOCK
  5
E34
330
E26
100
AcDbEntity
  8
0
100
AcDbBlockBegin
  2
A$C7660327E
 70
     0
 10
0.0
 20
0.0
 30
0.0
  3
A$C7660327E
  1

  0
LINE
  5
E27
330
E26
100
AcDbEntity
  8
00外形線
100
AcDbLine
 10
9.503882614746434
 20
41.62403862569624
 30
0.0
 11
0.1230510950995267
 21
25.37596181642431
 31
0.0
  0
LINE
  5
E28
330
E26
100
AcDbEntity
  8
00外形線
100
AcDbLine
 10
32.38083185404304
 20
44.0000002210603
 30
0.0
 11
13.61916881474934
 21
44.0000002210603
 31
0.0
  0
LINE
  5
E29
330
E26
100
AcDbEntity
  8
00外形線
100
AcDbLine
 10
45.87694957369282
 20
25.37596181642431
 30
0.0
 11
36.49611805404598
 21
41.62403862569624
 31
0.0
  0
CIRCLE
  5
E2A
330
E26
100
AcDbEntity
  8
00外形線
100
AcDbCircle
 10
23.00000033439619
 20
23.00000022106027
 30
0.0
 40
20.5
  0
LINE
  5
E2B
330
E26
100
AcDbEntity
  8
00外形線
100
AcDbLine
 10
9.503882614746434
 20
4.375961816424307
 30
0.0
 11
0.1230510950995267
 21
20.62403862569624
 31
0.0
  0
LINE
  5
E2C
330
E26
100
AcDbEntity
  8
00外形線
100
AcDbLine
 10
32.38083185404304
 20
2.000000221060275
 30
0.0
 11
13.61916881474934
 21
2.000000221060275
 31
0.0
  0
LINE
  5
E2D
330
E26
100
AcDbEntity
  8
00外形線
100
AcDbLine
 10
45.87694957369282
 20
20.62403862569624
 30
0.0
 11
36.49611805404598
 21
4.375961816424307
 31
0.0
  0
CIRCLE
  5
E2E
330
E26
100
AcDbEntity
  8
00外形線
100
AcDbCircle
 10
23.00000033439619
 20
23.00000022106027
 30
0.0
 40
22.99999999999954
  0
CIRCLE
  5
E2F
330
E26
100
AcDbEntity
  8
00外形線
100
AcDbCircle
 10
23.00000033439619
 20
23.00000022106027
 30
0.0
 40
10.49999999999954
  0
CIRCLE
  5
E30
330
E26
100
AcDbEntity
  8
00外形線
100
AcDbCircle
 10
23.00000033439619
 20
23.00000022106027
 30
0.0
 40
15.14549999999964
  0
CIRCLE
  5
E31
330
E26
100
AcDbEntity
  8
01細線
100
AcDbCircle
 10
23.00000033439619
 20
23.00000022106027
 30
0.0
 40
16.62449999999959
  0
ENDBLK
  5
E35
330
E26
100
AcDbEntity
  8
0
100
AcDbBlockEnd
  0
BLOCK
  5
101B
330
1003
100
AcDbEntity
  8
0
100
AcDbBlockBegin
  2
A$C558F11B4
 70
     0
 10
0.0
 20
0.0
 30
0.0
  3
A$C558F11B4
  1

  0
ARC
  5
1004
330
1003
100
AcDbEntity
  8
00外形線
100
AcDbCircle
 10
21.00000000722634
 20
9.912386029580488
 30
0.0
 40
10.00000000000005
100
AcDbArc
 50
216.8698976458447
 51
323.1301023541553
  0
ARC
  5
1005
330
1003
100
AcDbEntity
  8
00外形線
100
AcDbCircle
 10
21.00000000722634
 20
9.912386029580488
 30
0.0
 40
10.00000000000005
100
AcDbArc
 50
36.86989764584207
 51
143.1301023541579
  0
LINE
  5
1006
330
1003
100
AcDbEntity
  8
00外形線
100
AcDbLine
 10
41.00000000722639
 20
3.912386029580375
 30
0.0
 11
1.000000007226162
 21
3.912386029580545
 31
0.0
  0
ARC
  5
1007
330
1003
100
AcDbEntity
  8
00外形線
100
AcDbCircle
 10
41.00000000722639
 20
14.91238602958037
 30
0.0
 40
1.0
100
AcDbArc
 50
0.0
 51
90.0
1001
GENIUS_GENOBJ-N-FIL_13
1002
{
1000
OWNER
1000
GEN
1002
}
1001
GENIUS_GENODEF_13
1002
{
1000
HIER
1070
     0
1002
}
1002
{
1000
MANEDIT
1070
     0
1002
}
1002
{
1000
NOSEL
1070
     0
1002
}
1002
{
1000
BEHIND
1070
     0
1002
}
1002
{
1000
OTHER
1070
     0
1002
}
1002
{
1000
REACTOR
1002
}
  0
LINE
  5
1008
330
1003
100
AcDbEntity
  8
00外形線
100
AcDbLine
 10
41.00000000722639
 20
15.91238602958014
 30
0.0
 11
1.000000007226162
 21
15.91238602958049
 31
0.0
  0
ARC
  5
1009
330
1003
100
AcDbEntity
  8
00外形線
100
AcDbCircle
 10
1.000000007226162
 20
14.91238602958049
 30
0.0
 40
1.0
100
AcDbArc
 50
90.0
 51
180.0
1001
GENIUS_GENODEF_13
1002
{
1000
HIER
1070
     0
1002
}
1002
{
1000
MANEDIT
1070
     0
1002
}
1002
{
1000
NOSEL
1070
     0
1002
}
1002
{
1000
BEHIND
1070
     0
1002
}
1002
{
1000
OTHER
1070
     0
1002
}
1002
{
1000
REACTOR
1002
}
1001
GENIUS_GENOBJ-N-FIL_13
1002
{
1000
OWNER
1000
GEN
1002
}
  0
LINE
  5
100A
330
1003
100
AcDbEntity
  8
00外形線
100
AcDbLine
 10
42.00000000722639
 20
4.912386029580432
 30
0.0
 11
42.00000000722639
 21
14.91238602958037
 31
0.0
  0
ARC
  5
100B
330
1003
100
AcDbEntity
  8
00外形線
100
AcDbCircle
 10
41.00000000722639
 20
4.912386029580432
 30
0.0
 40
1.0
100
AcDbArc
 50
270.0
 51
0.0
1001
GENIUS_GENODEF_13
1002
{
1000
HIER
1070
     0
1002
}
1002
{
1000
MANEDIT
1070
     0
1002
}
1002
{
1000
NOSEL
1070
     0
1002
}
1002
{
1000
BEHIND
1070
     0
1002
}
1002
{
1000
OTHER
1070
     0
1002
}
1002
{
1000
REACTOR
1002
}
1001
GENIUS_GENOBJ-N-FIL_13
1002
{
1000
OWNER
1000
GEN
1002
}
  0
LINE
  5
100C
330
1003
100
AcDbEntity
  8
00外形線
100
AcDbLine
 10
0.0000000072261628
 20
4.912386029580545
 30
0.0
 11
0.0000000072261628
 21
14.91238602958049
 31
0.0
  0
ARC
  5
100D
330
1003
100
AcDbEntity
  8
00外形線
100
AcDbCircle
 10
1.000000007226162
 20
4.912386029580545
 30
0.0
 40
1.0
100
AcDbArc
 50
180.0
 51
270.0
1001
GENIUS_GENOBJ-N-FIL_13
1002
{
1000
OWNER
1000
GEN
1002
}
1001
GENIUS_GENODEF_13
1002
{
1000
HIER
1070
     0
1002
}
1002
{
1000
MANEDIT
1070
     0
1002
}
1002
{
1000
NOSEL
1070
     0
1002
}
1002
{
1000
BEHIND
1070
     0
1002
}
1002
{
1000
OTHER
1070
     0
1002
}
1002
{
1000
REACTOR
1002
}
  0
LINE
  5
100E
330
1003
100
AcDbEntity
  8
00外形線
100
AcDbLine
 10
16.00000000722639
 20
15.91238602958037
 30
0.0
 11
16.00000000722639
 21
3.912386029580488
 31
0.0
  0
LINE
  5
100F
330
1003
100
AcDbEntity
  8
00外形線
100
AcDbLine
 10
26.00000000722634
 20
15.91238602958026
 30
0.0
 11
26.00000000722634
 21
3.912386029580432
 31
0.0
  0
CIRCLE
  5
1010
330
1003
100
AcDbEntity
  8
00外形線
100
AcDbCircle
 10
21.00000000722634
 20
9.912386029580488
 30
0.0
 40
4.356610218918774
  0
LINE
  5
1011
330
1003
100
AcDbEntity
  8
01細線
100
AcDbLine
 10
29.00000000722633
 20
12.91238602958049
 30
0.0
 11
33.00000000722633
 21
12.91238602958026
 31
0.0
  0
LINE
  5
1012
330
1003
100
AcDbEntity
  8
01細線
100
AcDbLine
 10
29.00000000722633
 20
12.91238602958049
 30
0.0
 11
31.00000000722634
 21
6.912386029580488
 31
0.0
  0
LINE
  5
1013
330
1003
100
AcDbEntity
  8
01細線
100
AcDbLine
 10
31.00000000722634
 20
6.912386029580488
 30
0.0
 11
33.00000000722633
 21
12.91238602958026
 31
0.0
  0
LINE
  5
1014
330
1003
100
AcDbEntity
  8
01細線
100
AcDbLine
 10
9.000000007226333
 20
12.91238602958049
 30
0.0
 11
13.00000000722633
 21
12.91238602958026
 31
0.0
  0
LINE
  5
1015
330
1003
100
AcDbEntity
  8
01細線
100
AcDbLine
 10
9.000000007226333
 20
12.91238602958049
 30
0.0
 11
11.00000000722633
 21
6.912386029580488
 31
0.0
  0
LINE
  5
1016
330
1003
100
AcDbEntity
  8
01細線
100
AcDbLine
 10
11.00000000722633
 20
6.912386029580488
 30
0.0
 11
13.00000000722633
 21
12.91238602958026
 31
0.0
  0
MTEXT
  5
1017
330
1003
100
AcDbEntity
  8
06文字
100
AcDbMText
 10
4.500000007226276
 20
9.912386029580488
 30
0.0
 40
5.0
 41
4.698676962185118
 71
     5
 72
     5
  1
O
  7
ベン
 73
     1
 44
1.0
1001
ACAD
1000
MTEXTBEGIN
1070
    73
1070
     1
1070
    44
1040
1.0
1070
    74
1070
     0
1000
MTEXTEND
  0
MTEXT
  5
1018
330
1003
100
AcDbEntity
  8
06文字
100
AcDbMText
 10
37.50000000722639
 20
9.912386029580488
 30
0.0
 40
5.0
 41
4.698676962185118
 71
     5
 72
     5
  1
S
  7
ベン
 73
     1
 44
1.0
1001
ACAD
1000
MTEXTBEGIN
1070
    73
1070
     1
1070
    44
1040
1.0
1070
    74
1070
     0
1000
MTEXTEND
  0
ENDBLK
  5
101C
330
1003
100
AcDbEntity
  8
0
100
AcDbBlockEnd
  0
BLOCK
  5
1127
330
111D
100
AcDbEntity
  8
0
100
AcDbBlockBegin
  2
*D26
 70
     1
 10
0.0
 20
0.0
 30
0.0
  3
*D26
  1

  0
LINE
  5
1AF5
330
111D
100
AcDbEntity
  8
05寸法線
100
AcDbLine
 10
142.1320689425746
 20
175.164476900424
 30
0.0
 11
142.1320689425746
 21
142.4309625872758
 31
0.0
  0
LINE
  5
1AF6
330
111D
100
AcDbEntity
  8
05寸法線
100
AcDbLine
 10
234.1320689425746
 20
168.5290142485116
 30
0.0
 11
234.1320689425746
 21
142.4309625872758
 31
0.0
  0
LINE
  5
1AF7
330
111D
100
AcDbEntity
  8
05寸法線
100
AcDbLine
 10
145.1320689425746
 20
143.4309625872758
 30
0.0
 11
231.1320689425746
 21
143.4309625872758
 31
0.0
  0
INSERT
  5
1AF8
330
111D
100
AcDbEntity
  8
05寸法線
100
AcDbBlockReference
  2
_Open30
 10
142.1320689425746
 20
143.4309625872758
 30
0.0
 41
3.0
 42
3.0
 43
3.0
 50
180.0
  0
INSERT
  5
1AF9
330
111D
100
AcDbEntity
  8
05寸法線
100
AcDbBlockReference
  2
_Open30
 10
234.1320689425746
 20
143.4309625872758
 30
0.0
 41
3.0
 42
3.0
 43
3.0
  0
MTEXT
  5
1AFA
330
111D
100
AcDbEntity
  8
05寸法線
 62
     2
100
AcDbMText
 10
188.1320689425746
 20
147.1830032155159
 30
0.0
 40
6.0
 41
0.0
 71
     5
 72
     1
  1
92
  7
ベン
 73
     1
 44
1.0
1001
ACAD
1000
MTEXTBEGIN
1070
    73
1070
     1
1070
    44
1040
1.0
1070
    74
1070
     0
1000
MTEXTEND
  0
POINT
  5
1AFB
330
111D
100
AcDbEntity
  8
Defpoints
 62
     0
100
AcDbPoint
 10
142.1320689425746
 20
176.164476900424
 30
0.0
  0
POINT
  5
1AFC
330
111D
100
AcDbEntity
  8
Defpoints
 62
     0
100
AcDbPoint
 10
234.1320689425746
 20
169.5290142485116
 30
0.0
  0
POINT
  5
1AFD
330
111D
100
AcDbEntity
  8
Defpoints
 62
     0
100
AcDbPoint
 10
234.1320689425746
 20
143.4309625872758
 30
0.0
  0
ENDBLK
  5
1128
330
111D
100
AcDbEntity
  8
0
100
AcDbBlockEnd
  0
BLOCK
  5
1383
330
132A
100
AcDbEntity
  8
0
100
AcDbBlockBegin
  2
A$C54A35B19
 70
     0
 10
0.0
 20
0.0
 30
0.0
  3
A$C54A35B19
  1

  0
LINE
  5
132B
330
132A
100
AcDbEntity
  8
00外形線
100
AcDbLine
 10
12.40000016298552
 20
49.49329987961585
 30
0.0
 11
12.40000016298552
 21
49.00000016708394
 31
0.0
  0
LINE
  5
132C
330
132A
100
AcDbEntity
  8
00外形線
100
AcDbLine
 10
10.40000016298552
 20
49.00000016708395
 30
0.0
 11
10.40000016298552
 21
47.00000016708407
 31
0.0
  0
LINE
  5
132D
330
132A
100
AcDbEntity
  8
00外形線
100
AcDbLine
 10
26.40000016298555
 20
49.49329987961585
 30
0.0
 11
26.40000016298552
 21
49.00000016708393
 31
0.0
  0
LINE
  5
132E
330
132A
100
AcDbEntity
  8
00外形線
100
AcDbLine
 10
28.40000016298552
 20
49.00000016708395
 30
0.0
 11
28.40000016298552
 21
44.07106797894948
 31
0.0
  0
LINE
  5
132F
330
132A
100
AcDbEntity
  8
00外形線
100
AcDbLine
 10
0.0000001629855433
 20
43.60000016708397
 30
0.0
 11
0.0000001629855433
 21
23.00000016708395
 31
0.0
  0
LINE
  5
1330
330
132A
100
AcDbEntity
  8
00外形線
100
AcDbLine
 10
0.0000001629855433
 20
23.00000016708395
 30
0.0
 11
0.0000001629855433
 21
2.400000167083931
 31
0.0
  0
LINE
  5
1331
330
132A
100
AcDbEntity
  8
00外形線
100
AcDbLine
 10
31.72106797485105
 20
5.250000167083953
 30
0.0
 11
36.10000016298557
 21
5.250000167083953
 31
0.0
  0
ARC
  5
1332
330
132A
100
AcDbEntity
  8
00外形線
100
AcDbCircle
 10
31.72106797485105
 20
3.250000167083953
 30
0.0
 40
2.0
100
AcDbArc
 50
90.0
 51
135.0
1001
GENIUS_GENOBJ-N-FIL_13
1002
{
1000
OWNER
1000
GEN
1002
}
1001
GENIUS_GENODEF_13
1002
{
1000
HIER
1070
     0
1002
}
1002
{
1000
MANEDIT
1070
     0
1002
}
1002
{
1000
NOSEL
1070
     0
1002
}
1002
{
1000
BEHIND
1070
     0
1002
}
1002
{
1000
OTHER
1070
     0
1002
}
1002
{
1000
REACTOR
1002
}
  0
LINE
  5
1333
330
132A
100
AcDbEntity
  8
00外形線
100
AcDbLine
 10
27.22842728773173
 20
1.585786604710847
 30
0.0
 11
30.30685441247795
 21
4.66421372945706
 31
0.0
  0
ARC
  5
1334
330
132A
100
AcDbEntity
  8
00外形線
100
AcDbCircle
 10
25.81421372535863
 20
3.000000167083953
 30
0.0
 40
2.0
100
AcDbArc
 50
270.0
 51
315.0
1001
GENIUS_GENODEF_13
1002
{
1000
HIER
1070
     0
1002
}
1002
{
1000
MANEDIT
1070
     0
1002
}
1002
{
1000
NOSEL
1070
     0
1002
}
1002
{
1000
BEHIND
1070
     0
1002
}
1002
{
1000
OTHER
1070
     0
1002
}
1002
{
1000
REACTOR
1002
}
1001
GENIUS_GENOBJ-N-FIL_13
1002
{
1000
OWNER
1000
GEN
1002
}
  0
LINE
  5
1335
330
132A
100
AcDbEntity
  8
00外形線
100
AcDbLine
 10
5.40000016298552
 20
45.50000016708395
 30
0.0
 11
5.40000016298552
 21
23.00000016708395
 31
0.0
  0
LINE
  5
1336
330
132A
100
AcDbEntity
  8
00外形線
100
AcDbLine
 10
5.40000016298552
 20
23.00000016708395
 30
0.0
 11
5.40000016298552
 21
0.5000001670839538
 31
0.0
  0
LINE
  5
1337
330
132A
100
AcDbEntity
  8
00外形線
100
AcDbLine
 10
30.90000016298552
 20
23.00000016708395
 30
0.0
 11
30.90000016298564
 21
5.073690833923706
 31
0.0
  0
LINE
  5
1338
330
132A
100
AcDbEntity
  8
00外形線
100
AcDbLine
 10
27.40000016298552
 20
1.757359479964634
 30
0.0
 11
27.40000016298552
 21
39.33416932456089
 31
0.0
  0
LINE
  5
1339
330
132A
100
AcDbEntity
  8
00外形線
100
AcDbLine
 10
30.90000016298552
 20
23.00000016708395
 30
0.0
 11
30.90000016298552
 21
40.9263095002442
 31
0.0
  0
ARC
  5
133A
330
132A
100
AcDbEntity
  8
00外形線
100
AcDbCircle
 10
23.73639096706131
 20
62.48609745485601
 30
0.0
 40
21.80975780781757
100
AcDbArc
 50
235.262900483219
 51
279.6464243122873
  0
LINE
  5
133B
330
132A
100
AcDbEntity
  8
01細線
100
AcDbLine
 10
16.00000016298543
 20
29.73273308500438
 30
0.0
 11
16.00000016298543
 21
27.92994991551041
 31
0.0
  0
ARC
  5
133C
330
132A
100
AcDbEntity
  8
01細線
100
AcDbCircle
 10
14.8000001629855
 20
29.73273308500438
 30
0.0
 40
1.199999999999999
100
AcDbArc
 50
285.466009953418
 51
0.0
  0
LINE
  5
133D
330
132A
100
AcDbEntity
  8
01細線
100
AcDbLine
 10
16.00000016298543
 20
24.75497841984691
 30
0.0
 11
16.00000016298543
 21
23.950000167084
 31
0.0
  0
LINE
  5
133E
330
132A
100
AcDbEntity
  8
01細線
100
AcDbLine
 10
16.00000016298543
 20
19.97005041865748
 30
0.0
 11
16.00000016298543
 21
19.16669586984335
 31
0.0
  0
LINE
  5
133F
330
132A
100
AcDbEntity
  8
01細線
100
AcDbLine
 10
16.80000016298549
 20
19.97005041865748
 30
0.0
 11
16.80000016298549
 21
19.16669586984335
 31
0.0
  0
LINE
  5
1340
330
132A
100
AcDbEntity
  8
01細線
100
AcDbLine
 10
16.80000016298549
 20
25.74442619175613
 30
0.0
 11
16.80000016298549
 21
23.950000167084
 31
0.0
  0
ARC
  5
1341
330
132A
100
AcDbEntity
  8
01細線
100
AcDbCircle
 10
18.40000016298552
 20
25.74442619175613
 30
0.0
 40
1.599999999999999
100
AcDbArc
 50
180.0
 51
225.7322244204342
  0
LINE
  5
1342
330
132A
100
AcDbEntity
  8
01細線
100
AcDbLine
 10
16.80000016298549
 20
29.73273308500438
 30
0.0
 11
16.80000016298549
 21
27.92994991551041
 31
0.0
  0
ARC
  5
1343
330
132A
100
AcDbEntity
  8
01細線
100
AcDbCircle
 10
18.00000016298554
 20
29.73273308500438
 30
0.0
 40
1.199999999999999
100
AcDbArc
 50
180.0
 51
254.5339900465803
  0
ARC
  5
1344
330
132A
100
AcDbEntity
  8
01細線
100
AcDbCircle
 10
16.40000016298552
 20
23.950000167084
 30
0.0
 40
4.799999999999999
100
AcDbArc
 50
105.466009953418
 51
260.4059317731417
  0
ARC
  5
1345
330
132A
100
AcDbEntity
  8
01細線
100
AcDbCircle
 10
16.40000016298552
 20
23.950000167084
 30
0.0
 40
4.799999999999999
100
AcDbArc
 50
265.2198081527986
 51
274.7801918472013
  0
ARC
  5
1346
330
132A
100
AcDbEntity
  8
01細線
100
AcDbCircle
 10
16.40000016298552
 20
23.950000167084
 30
0.0
 40
4.799999999999999
100
AcDbArc
 50
279.5940682268583
 51
74.53399004658193
  0
ARC
  5
1347
330
132A
100
AcDbEntity
  8
01細線
100
AcDbCircle
 10
16.40000016298552
 20
23.950000167084
 30
0.0
 40
3.999999999999992
100
AcDbArc
 50
185.7391704772647
 51
258.4630409671886
  0
ARC
  5
1348
330
132A
100
AcDbEntity
  8
01細線
100
AcDbCircle
 10
16.40000016298552
 20
23.950000167084
 30
0.0
 40
3.999999999999992
100
AcDbArc
 50
264.2608295227319
 51
275.7391704772681
  0
ARC
  5
1349
330
132A
100
AcDbEntity
  8
01細線
100
AcDbCircle
 10
16.40000016298552
 20
23.950000167084
 30
0.0
 40
3.999999999999992
100
AcDbArc
 50
297.8113483863872
 51
84.26082952273189
  0
ARC
  5
134A
330
132A
100
AcDbEntity
  8
01細線
100
AcDbCircle
 10
16.40000016298552
 20
23.950000167084
 30
0.0
 40
3.999999999999992
100
AcDbArc
 50
95.7391704772681
 51
174.18833826493
  0
LINE
  5
134B
330
132A
100
AcDbEntity
  8
01細線
100
AcDbLine
 10
12.42005041455911
 20
23.55000016708391
 30
0.0
 11
16.00000016298554
 21
23.950000167084
 31
0.0
  0
LINE
  5
134C
330
132A
100
AcDbEntity
  8
01細線
100
AcDbLine
 10
12.42055968434522
 20
24.35503532229779
 30
0.0
 11
16.00000016298554
 21
24.75497841984691
 31
0.0
  0
LINE
  5
134D
330
132A
100
AcDbEntity
  8
01細線
100
AcDbLine
 10
16.80000016298549
 20
18.75000016708395
 30
0.0
 11
16.00000016298554
 21
18.75000016708395
 31
0.0
  0
LINE
  5
134E
330
132A
100
AcDbEntity
  8
01細線
100
AcDbLine
 10
15.80000016298561
 20
16.75000016708395
 30
0.0
 11
17.00000016298543
 21
16.75000016708395
 31
0.0
  0
LINE
  5
134F
330
132A
100
AcDbEntity
  8
01細線
100
AcDbLine
 10
17.00000016298543
 20
16.75000016708395
 30
0.0
 11
16.80000016298549
 21
18.75000016708395
 31
0.0
  0
LINE
  5
1350
330
132A
100
AcDbEntity
  8
01細線
100
AcDbLine
 10
16.00000016298543
 20
18.75000016708407
 30
0.0
 11
15.80000016298561
 21
16.75000016708395
 31
0.0
  0
LINE
  5
1351
330
132A
100
AcDbEntity
  8
01細線
100
AcDbLine
 10
17.20000016298547
 20
20.03081657863095
 30
0.0
 11
17.20000016298547
 21
19.21713634060427
 31
0.0
  0
LINE
  5
1352
330
132A
100
AcDbEntity
  8
01細線
100
AcDbLine
 10
15.60000016298556
 20
20.03081657863083
 30
0.0
 11
15.60000016298556
 21
19.21713634060427
 31
0.0
  0
ARC
  5
1353
330
132A
100
AcDbEntity
  8
01細線
100
AcDbCircle
 10
14.49112930347712
 20
21.73434781301012
 30
0.0
 40
3.199999999999999
100
AcDbArc
 50
327.8353895847707
 51
43.81970515961284
  0
ARC
  5
1354
330
132A
100
AcDbEntity
  8
01細線
100
AcDbCircle
 10
14.49112930347712
 20
21.73434781301012
 30
0.0
 40
4.0
100
AcDbArc
 50
340.6962906721045
 51
45.73222442043419
  0
ARC
  5
1355
330
132A
100
AcDbEntity
  8
01細線
100
AcDbCircle
 10
10.90641514845436
 20
14.50052117973604
 30
0.0
 40
5.599999999999999
100
AcDbArc
 50
31.22145554113681
 51
97.76290501584426
  0
ARC
  5
1356
330
132A
100
AcDbEntity
  8
01細線
100
AcDbCircle
 10
15.08358517751674
 20
22.69867896205517
 30
0.0
 40
5.599999999999999
100
AcDbArc
 50
208.2370949841589
 51
274.7785444588645
  0
LINE
  5
1357
330
132A
100
AcDbEntity
  8
01細線
100
AcDbLine
 10
15.55009139087531
 20
17.11814386648439
 30
0.0
 11
10.15000016298552
 21
20.04919997470734
 31
0.0
  0
LINE
  5
1358
330
132A
100
AcDbEntity
  8
01細線
100
AcDbLine
 10
10.15000016298552
 20
20.04919997470734
 30
0.0
 11
15.69536835079191
 21
17.40326595422465
 31
0.0
  0
ARC
  5
1359
330
132A
100
AcDbEntity
  8
01細線
100
AcDbCircle
 10
21.89358517751669
 20
14.50052117973604
 30
0.0
 40
5.599999999999999
100
AcDbArc
 50
82.23709498415574
 51
148.7785444588631
  0
ARC
  5
135A
330
132A
100
AcDbEntity
  8
01細線
100
AcDbCircle
 10
17.7164151484543
 20
22.69867896205517
 30
0.0
 40
5.599999999999999
100
AcDbArc
 50
265.2214555411354
 51
331.762905015841
  0
LINE
  5
135B
330
132A
100
AcDbEntity
  8
01細線
100
AcDbLine
 10
17.24990893509573
 20
17.11814386648439
 30
0.0
 11
22.65000016298552
 21
20.04919997470734
 31
0.0
  0
LINE
  5
135C
330
132A
100
AcDbEntity
  8
01細線
100
AcDbLine
 10
22.65000016298552
 20
20.04919997470734
 30
0.0
 11
17.10463197517913
 21
17.40326595422465
 31
0.0
  0
ARC
  5
135D
330
132A
100
AcDbEntity
  8
00外形線
100
AcDbCircle
 10
36.10000016298557
 20
7.252368959887462
 30
0.0
 40
2.0
100
AcDbArc
 50
270.0
 51
3.54932540531843
1001
GENIUS_GENOBJ-N-FIL_13
1002
{
1000
OWNER
1000
GEN
1002
}
1001
GENIUS_GENODEF_13
1002
{
1000
HIER
1070
     0
1002
}
1002
{
1000
MANEDIT
1070
     0
1002
}
1002
{
1000
NOSEL
1070
     0
1002
}
1002
{
1000
BEHIND
1070
     0
1002
}
1002
{
1000
OTHER
1070
     0
1002
}
1002
{
1000
REACTOR
1002
}
  0
ARC
  5
135E
330
132A
100
AcDbEntity
  8
00外形線
100
AcDbCircle
 10
40.09232765271167
 20
7.500000167083896
 30
0.0
 40
2.0
100
AcDbArc
 50
90.0
 51
183.5493254053184
1001
GENIUS_GENODEF_13
1002
{
1000
HIER
1070
     0
1002
}
1002
{
1000
MANEDIT
1070
     0
1002
}
1002
{
1000
NOSEL
1070
     0
1002
}
1002
{
1000
BEHIND
1070
     0
1002
}
1002
{
1000
OTHER
1070
     0
1002
}
1002
{
1000
REACTOR
1002
}
1001
GENIUS_GENOBJ-N-FIL_13
1002
{
1000
OWNER
1000
GEN
1002
}
  0
LINE
  5
135F
330
132A
100
AcDbEntity
  8
00外形線
100
AcDbLine
 10
40.09218001865337
 20
36.50000016708395
 30
0.0
 11
56.11993059588963
 21
36.50000016708395
 31
0.0
  0
ARC
  5
1360
330
132A
100
AcDbEntity
  8
00外形線
100
AcDbCircle
 10
56.11993059588963
 20
38.50000016708396
 30
0.0
 40
2.0
100
AcDbArc
 50
270.0
 51
315.0
1001
GENIUS_GENODEF_13
1002
{
1000
HIER
1070
     0
1002
}
1002
{
1000
MANEDIT
1070
     0
1002
}
1002
{
1000
NOSEL
1070
     0
1002
}
1002
{
1000
BEHIND
1070
     0
1002
}
1002
{
1000
OTHER
1070
     0
1002
}
1002
{
1000
REACTOR
1002
}
1001
GENIUS_GENOBJ-N-FIL_13
1002
{
1000
OWNER
1000
GEN
1002
}
  0
LINE
  5
1361
330
132A
100
AcDbEntity
  8
00外形線
100
AcDbLine
 10
40.09232765271167
 20
9.500000167083953
 30
0.0
 11
56.12634183810417
 21
9.500000167083953
 31
0.0
  0
LINE
  5
1362
330
132A
100
AcDbEntity
  8
00外形線
100
AcDbLine
 10
38.09609009081942
 20
38.62500016708395
 30
0.0
 11
38.09609009081942
 21
23.00000016708395
 31
0.0
  0
LINE
  5
1363
330
132A
100
AcDbEntity
  8
00外形線
100
AcDbLine
 10
38.09609009081942
 20
7.375000167083953
 30
0.0
 11
38.09609009081942
 21
23.00000016708395
 31
0.0
  0
LINE
  5
1364
330
132A
100
AcDbEntity
  8
00外形線
100
AcDbLine
 10
8.40000016298552
 20
30.25000016708395
 30
0.0
 11
24.40000016298552
 21
30.25000016708395
 31
0.0
  0
LINE
  5
1365
330
132A
100
AcDbEntity
  8
00外形線
100
AcDbLine
 10
24.40000016298552
 20
30.25000016708395
 30
0.0
 11
24.40000016298552
 21
15.75000016708395
 31
0.0
  0
LINE
  5
1366
330
132A
100
AcDbEntity
  8
00外形線
100
AcDbLine
 10
24.40000016298552
 20
15.75000016708395
 30
0.0
 11
8.40000016298552
 21
15.75000016708395
 31
0.0
  0
LINE
  5
1367
330
132A
100
AcDbEntity
  8
00外形線
100
AcDbLine
 10
8.40000016298552
 20
15.75000016708395
 30
0.0
 11
8.40000016298552
 21
30.25000016708395
 31
0.0
  0
LINE
  5
1368
330
132A
100
AcDbEntity
  8
00外形線
100
AcDbLine
 10
60.20156334174316
 20
39.75320578819117
 30
0.0
 11
57.53414415826262
 21
37.08578660471085
 31
0.0
  0
LINE
  5
1369
330
132A
100
AcDbEntity
  8
00外形線
100
AcDbLine
 10
60.20156334174302
 20
6.25320578819128
 30
0.0
 11
57.54055540047727
 21
8.91421372945706
 31
0.0
  0
ARC
  5
136A
330
132A
100
AcDbEntity
  8
00外形線
100
AcDbCircle
 10
56.12634183810417
 20
7.500000167083953
 30
0.0
 40
2.0
100
AcDbArc
 50
45.0
 51
90.0
1001
GENIUS_GENODEF_13
1002
{
1000
HIER
1070
     0
1002
}
1002
{
1000
MANEDIT
1070
     0
1002
}
1002
{
1000
NOSEL
1070
     0
1002
}
1002
{
1000
BEHIND
1070
     0
1002
}
1002
{
1000
OTHER
1070
     0
1002
}
1002
{
1000
REACTOR
1002
}
1001
GENIUS_GENOBJ-N-FIL_13
1002
{
1000
OWNER
1000
GEN
1002
}
  0
LINE
  5
136B
330
132A
100
AcDbEntity
  8
00外形線
100
AcDbLine
 10
56.88529746061988
 20
36.65224110206134
 30
0.0
 11
56.88529746061988
 21
23.00000016708395
 31
0.0
  0
LINE
  5
136C
330
132A
100
AcDbEntity
  8
00外形線
100
AcDbLine
 10
56.88529746061988
 20
9.347759232106568
 30
0.0
 11
56.88529746061988
 21
23.00000016708395
 31
0.0
  0
ARC
  5
136D
330
132A
100
AcDbEntity
  8
00外形線
100
AcDbCircle
 10
36.10000016298557
 20
38.75000016708396
 30
0.0
 40
2.0
100
AcDbArc
 50
356.416678301528
 51
90.0
1001
GENIUS_GENOBJ-N-FIL_13
1002
{
1000
OWNER
1000
GEN
1002
}
1001
GENIUS_GENODEF_13
1002
{
1000
HIER
1070
     0
1002
}
1002
{
1000
MANEDIT
1070
     0
1002
}
1002
{
1000
NOSEL
1070
     0
1002
}
1002
{
1000
BEHIND
1070
     0
1002
}
1002
{
1000
OTHER
1070
     0
1002
}
1002
{
1000
REACTOR
1002
}
  0
ARC
  5
136E
330
132A
100
AcDbEntity
  8
00外形線
100
AcDbCircle
 10
40.09218001865337
 20
38.50000016708396
 30
0.0
 40
2.0
100
AcDbArc
 50
176.416678301528
 51
270.0
1001
GENIUS_GENODEF_13
1002
{
1000
HIER
1070
     0
1002
}
1002
{
1000
MANEDIT
1070
     0
1002
}
1002
{
1000
NOSEL
1070
     0
1002
}
1002
{
1000
BEHIND
1070
     0
1002
}
1002
{
1000
OTHER
1070
     0
1002
}
1002
{
1000
REACTOR
1002
}
1001
GENIUS_GENOBJ-N-FIL_13
1002
{
1000
OWNER
1000
GEN
1002
}
  0
LINE
  5
136F
330
132A
100
AcDbEntity
  8
00外形線
100
AcDbLine
 10
31.72106797485105
 20
40.75000016708395
 30
0.0
 11
36.10000016298557
 21
40.75000016708395
 31
0.0
  0
ARC
  5
1370
330
132A
100
AcDbEntity
  8
00外形線
100
AcDbCircle
 10
31.72106797485105
 20
42.75000016708395
 30
0.0
 40
2.0
100
AcDbArc
 50
225.0
 51
270.0
1001
GENIUS_GENOBJ-N-FIL_13
1002
{
1000
OWNER
1000
GEN
1002
}
1001
GENIUS_GENODEF_13
1002
{
1000
HIER
1070
     0
1002
}
1002
{
1000
MANEDIT
1070
     0
1002
}
1002
{
1000
NOSEL
1070
     0
1002
}
1002
{
1000
BEHIND
1070
     0
1002
}
1002
{
1000
OTHER
1070
     0
1002
}
1002
{
1000
REACTOR
1002
}
  0
LINE
  5
1371
330
132A
100
AcDbEntity
  8
00外形線
100
AcDbLine
 10
0.0000001629855433
 20
0.5000001670839538
 30
0.0
 11
0.0000001629855433
 21
2.400000167083931
 31
0.0
  0
LINE
  5
1372
330
132A
100
AcDbEntity
  8
00外形線
100
AcDbLine
 10
5.90000016298552
 20
1.000000167083953
 30
0.0
 11
25.81421372535863
 21
1.000000167083953
 31
0.0
  0
ARC
  5
1373
330
132A
100
AcDbEntity
  8
00外形線
100
AcDbCircle
 10
5.90000016298552
 20
0.5000001670839538
 30
0.0
 40
0.5
100
AcDbArc
 50
90.0
 51
180.0
  0
ARC
  5
1374
330
132A
100
AcDbEntity
  8
00外形線
100
AcDbCircle
 10
4.90000016298552
 20
0.5000001670839538
 30
0.0
 40
0.5
100
AcDbArc
 50
270.0
 51
0.0
  0
LINE
  5
1375
330
132A
100
AcDbEntity
  8
00外形線
100
AcDbLine
 10
0.0000001629855433
 20
45.50000016708395
 30
0.0
 11
0.0000001629855433
 21
43.60000016708397
 31
0.0
  0
LINE
  5
1376
330
132A
100
AcDbEntity
  8
00外形線
100
AcDbLine
 10
0.0000001629855433
 20
45.50000016708395
 30
0.0
 11
0.5000001629855433
 21
46.00000016708395
 31
0.0
  0
ARC
  5
1377
330
132A
100
AcDbEntity
  8
00外形線
100
AcDbCircle
 10
5.90000016298552
 20
45.50000016708395
 30
0.0
 40
0.5
100
AcDbArc
 50
180.0
 51
270.0
  0
ARC
  5
1378
330
132A
100
AcDbEntity
  8
00外形線
100
AcDbCircle
 10
4.90000016298552
 20
45.50000016708395
 30
0.0
 40
0.5
100
AcDbArc
 50
0.0
 51
90.0
  0
LINE
  5
1379
330
132A
100
AcDbEntity
  8
00外形線
100
AcDbLine
 10
8.40000016298552
 20
45.00000016708407
 30
0.0
 11
5.90000016298552
 21
45.00000016708395
 31
0.0
  0
ARC
  5
137A
330
132A
100
AcDbEntity
  8
00外形線
100
AcDbCircle
 10
8.40000016298552
 20
47.00000016708407
 30
0.0
 40
2.0
100
AcDbArc
 50
270.0
 51
0.0
1001
GENIUS_GENOBJ-N-FIL_13
1002
{
1000
OWNER
1000
GEN
1002
}
1001
GENIUS_GENODEF_13
1002
{
1000
HIER
1070
     0
1002
}
1002
{
1000
MANEDIT
1070
     0
1002
}
1002
{
1000
NOSEL
1070
     0
1002
}
1002
{
1000
BEHIND
1070
     0
1002
}
1002
{
1000
OTHER
1070
     0
1002
}
1002
{
1000
REACTOR
1002
}
  0
LINE
  5
137B
330
132A
100
AcDbEntity
  8
00外形線
100
AcDbLine
 10
0.5000001629855433
 20
46.00000016708395
 30
0.0
 11
4.90000016298552
 21
46.00000016708395
 31
0.0
  0
LINE
  5
137C
330
132A
100
AcDbEntity
  8
00外形線
100
AcDbLine
 10
0.5000001629855433
 20
0.0000001670839538
 30
0.0
 11
4.90000016298552
 21
0.0000001670839538
 31
0.0
  0
LINE
  5
137D
330
132A
100
AcDbEntity
  8
00外形線
100
AcDbLine
 10
0.0000001629855433
 20
0.5000001670839538
 30
0.0
 11
0.5000001629855433
 21
0.0000001670839538
 31
0.0
1001
GENIUS_GENFIL_13
1070
     0
1040
0.5
1040
0.5
1040
0.5
1040
44.99999999999348
1000
~T
  0
LINE
  5
137E
330
132A
100
AcDbEntity
  8
00外形線
100
AcDbLine
 10
28.98578660061242
 20
42.65685441657637
 30
0.0
 11
30.30685441247795
 21
41.33578660471084
 31
0.0
  0
ARC
  5
137F
330
132A
100
AcDbEntity
  8
00外形線
100
AcDbCircle
 10
30.40000016298552
 20
44.07106797894948
 30
0.0
 40
2.0
100
AcDbArc
 50
180.0
 51
225.0
1001
GENIUS_GENODEF_13
1002
{
1000
HIER
1070
     0
1002
}
1002
{
1000
MANEDIT
1070
     0
1002
}
1002
{
1000
NOSEL
1070
     0
1002
}
1002
{
1000
BEHIND
1070
     0
1002
}
1002
{
1000
OTHER
1070
     0
1002
}
1002
{
1000
REACTOR
1002
}
1001
GENIUS_GENOBJ-N-FIL_13
1002
{
1000
OWNER
1000
GEN
1002
}
  0
LINE
  5
1380
330
132A
100
AcDbEntity
  8
00外形線
100
AcDbLine
 10
10.40000016298552
 20
49.00000016708395
 30
0.0
 11
28.40000016298552
 21
49.00000016708394
 31
0.0
  0
ENDBLK
  5
1384
330
132A
100
AcDbEntity
  8
0
100
AcDbBlockEnd
  0
BLOCK
  5
149C
330
1443
100
AcDbEntity
  8
0
100
AcDbBlockBegin
  2
A$C7FB106B2
 70
     0
 10
0.0
 20
0.0
 30
0.0
  3
A$C7FB106B2
  1

  0
LINE
  5
1444
330
1443
100
AcDbEntity
  8
00外形線
100
AcDbLine
 10
12.40000004438408
 20
49.50000025658403
 30
0.0
 11
12.40000004438411
 21
49.00000025658403
 31
0.0
  0
LINE
  5
1445
330
1443
100
AcDbEntity
  8
00外形線
100
AcDbLine
 10
10.40000004438411
 20
49.00000025658403
 30
0.0
 11
10.40000004438411
 21
47.00000025658414
 31
0.0
  0
LINE
  5
1446
330
1443
100
AcDbEntity
  8
00外形線
100
AcDbLine
 10
26.40000004438417
 20
49.50000025658403
 30
0.0
 11
26.40000004438411
 21
49.000000256584
 31
0.0
  0
LINE
  5
1447
330
1443
100
AcDbEntity
  8
00外形線
100
AcDbLine
 10
28.40000004438412
 20
49.00000025658403
 30
0.0
 11
28.40000004438412
 21
44.07106806844956
 31
0.0
  0
LINE
  5
1448
330
1443
100
AcDbEntity
  8
00外形線
100
AcDbLine
 10
0.0000000443841373
 20
43.60000025658405
 30
0.0
 11
0.0000000443841373
 21
23.00000025658403
 31
0.0
  0
LINE
  5
1449
330
1443
100
AcDbEntity
  8
00外形線
100
AcDbLine
 10
0.0000000443841373
 20
23.00000025658403
 30
0.0
 11
0.0000000443841373
 21
2.400000256584007
 31
0.0
  0
LINE
  5
144A
330
1443
100
AcDbEntity
  8
00外形線
100
AcDbLine
 10
31.72106785624965
 20
5.25000025658403
 30
0.0
 11
36.10000004438416
 21
5.25000025658403
 31
0.0
  0
ARC
  5
144B
330
1443
100
AcDbEntity
  8
00外形線
100
AcDbCircle
 10
31.72106785624965
 20
3.25000025658403
 30
0.0
 40
2.0
100
AcDbArc
 50
90.0
 51
135.0
1001
GENIUS_GENOBJ-N-FIL_13
1002
{
1000
OWNER
1000
GEN
1002
}
1001
GENIUS_GENODEF_13
1002
{
1000
HIER
1070
     0
1002
}
1002
{
1000
MANEDIT
1070
     0
1002
}
1002
{
1000
NOSEL
1070
     0
1002
}
1002
{
1000
BEHIND
1070
     0
1002
}
1002
{
1000
OTHER
1070
     0
1002
}
1002
{
1000
REACTOR
1002
}
  0
LINE
  5
144C
330
1443
100
AcDbEntity
  8
00外形線
100
AcDbLine
 10
27.22842716913033
 20
1.585786694210923
 30
0.0
 11
30.30685429387654
 21
4.664213818957136
 31
0.0
  0
ARC
  5
144D
330
1443
100
AcDbEntity
  8
00外形線
100
AcDbCircle
 10
25.81421360675722
 20
3.00000025658403
 30
0.0
 40
2.0
100
AcDbArc
 50
270.0
 51
315.0
1001
GENIUS_GENODEF_13
1002
{
1000
HIER
1070
     0
1002
}
1002
{
1000
MANEDIT
1070
     0
1002
}
1002
{
1000
NOSEL
1070
     0
1002
}
1002
{
1000
BEHIND
1070
     0
1002
}
1002
{
1000
OTHER
1070
     0
1002
}
1002
{
1000
REACTOR
1002
}
1001
GENIUS_GENOBJ-N-FIL_13
1002
{
1000
OWNER
1000
GEN
1002
}
  0
LINE
  5
144E
330
1443
100
AcDbEntity
  8
00外形線
100
AcDbLine
 10
5.400000044384114
 20
45.50000025658403
 30
0.0
 11
5.400000044384114
 21
23.00000025658403
 31
0.0
  0
LINE
  5
144F
330
1443
100
AcDbEntity
  8
00外形線
100
AcDbLine
 10
5.400000044384114
 20
23.00000025658403
 30
0.0
 11
5.400000044384114
 21
0.5000002565840305
 31
0.0
  0
LINE
  5
1450
330
1443
100
AcDbEntity
  8
00外形線
100
AcDbLine
 10
30.90000004438412
 20
23.00000025658403
 30
0.0
 11
30.90000004438423
 21
5.073690923423782
 31
0.0
  0
LINE
  5
1451
330
1443
100
AcDbEntity
  8
00外形線
100
AcDbLine
 10
27.40000004438412
 20
1.757359569464711
 30
0.0
 11
27.40000004438412
 21
39.33416941406097
 31
0.0
  0
LINE
  5
1452
330
1443
100
AcDbEntity
  8
00外形線
100
AcDbLine
 10
30.90000004438412
 20
23.00000025658403
 30
0.0
 11
30.90000004438412
 21
40.92630958974427
 31
0.0
  0
ARC
  5
1453
330
1443
100
AcDbEntity
  8
00外形線
100
AcDbCircle
 10
23.7363908484599
 20
62.48609754435609
 30
0.0
 40
21.80975780781757
100
AcDbArc
 50
235.262900483219
 51
279.6464243122874
  0
LINE
  5
1454
330
1443
100
AcDbEntity
  8
01細線
100
AcDbLine
 10
16.00000004438402
 20
29.73273317450446
 30
0.0
 11
16.00000004438402
 21
27.92995000501048
 31
0.0
  0
ARC
  5
1455
330
1443
100
AcDbEntity
  8
01細線
100
AcDbCircle
 10
14.80000004438409
 20
29.73273317450446
 30
0.0
 40
1.199999999999999
100
AcDbArc
 50
285.4660099534179
 51
0.0
  0
LINE
  5
1456
330
1443
100
AcDbEntity
  8
01細線
100
AcDbLine
 10
16.00000004438402
 20
24.75497850934698
 30
0.0
 11
16.00000004438402
 21
23.95000025658408
 31
0.0
  0
LINE
  5
1457
330
1443
100
AcDbEntity
  8
01細線
100
AcDbLine
 10
16.00000004438402
 20
19.97005050815755
 30
0.0
 11
16.00000004438402
 21
19.16669595934343
 31
0.0
  0
LINE
  5
1458
330
1443
100
AcDbEntity
  8
01細線
100
AcDbLine
 10
16.80000004438409
 20
19.97005050815755
 30
0.0
 11
16.80000004438409
 21
19.16669595934343
 31
0.0
  0
LINE
  5
1459
330
1443
100
AcDbEntity
  8
01細線
100
AcDbLine
 10
16.80000004438409
 20
25.74442628125621
 30
0.0
 11
16.80000004438409
 21
23.95000025658408
 31
0.0
  0
ARC
  5
145A
330
1443
100
AcDbEntity
  8
01細線
100
AcDbCircle
 10
18.40000004438411
 20
25.74442628125621
 30
0.0
 40
1.599999999999999
100
AcDbArc
 50
180.0
 51
225.7322244204342
  0
LINE
  5
145B
330
1443
100
AcDbEntity
  8
01細線
100
AcDbLine
 10
16.80000004438409
 20
29.73273317450446
 30
0.0
 11
16.80000004438409
 21
27.92995000501048
 31
0.0
  0
ARC
  5
145C
330
1443
100
AcDbEntity
  8
01細線
100
AcDbCircle
 10
18.00000004438414
 20
29.73273317450446
 30
0.0
 40
1.199999999999999
100
AcDbArc
 50
180.0
 51
254.5339900465802
  0
ARC
  5
145D
330
1443
100
AcDbEntity
  8
01細線
100
AcDbCircle
 10
16.40000004438411
 20
23.95000025658408
 30
0.0
 40
4.799999999999999
100
AcDbArc
 50
105.4660099534178
 51
260.4059317731416
  0
ARC
  5
145E
330
1443
100
AcDbEntity
  8
01細線
100
AcDbCircle
 10
16.40000004438411
 20
23.95000025658408
 30
0.0
 40
4.799999999999999
100
AcDbArc
 50
265.2198081527986
 51
274.7801918472013
  0
ARC
  5
145F
330
1443
100
AcDbEntity
  8
01細線
100
AcDbCircle
 10
16.40000004438411
 20
23.95000025658408
 30
0.0
 40
4.799999999999999
100
AcDbArc
 50
279.5940682268584
 51
74.53399004658215
  0
ARC
  5
1460
330
1443
100
AcDbEntity
  8
01細線
100
AcDbCircle
 10
16.40000004438411
 20
23.95000025658408
 30
0.0
 40
3.999999999999992
100
AcDbArc
 50
185.7391704772647
 51
258.4630409671886
  0
ARC
  5
1461
330
1443
100
AcDbEntity
  8
01細線
100
AcDbCircle
 10
16.40000004438411
 20
23.95000025658408
 30
0.0
 40
3.999999999999992
100
AcDbArc
 50
264.2608295227319
 51
275.739170477268
  0
ARC
  5
1462
330
1443
100
AcDbEntity
  8
01細線
100
AcDbCircle
 10
16.40000004438411
 20
23.95000025658408
 30
0.0
 40
3.999999999999992
100
AcDbArc
 50
297.8113483863872
 51
84.26082952273198
  0
ARC
  5
1463
330
1443
100
AcDbEntity
  8
01細線
100
AcDbCircle
 10
16.40000004438411
 20
23.95000025658408
 30
0.0
 40
3.999999999999992
100
AcDbArc
 50
95.739170477268
 51
174.18833826493
  0
LINE
  5
1464
330
1443
100
AcDbEntity
  8
01細線
100
AcDbLine
 10
12.42005029595771
 20
23.55000025658398
 30
0.0
 11
16.00000004438413
 21
23.95000025658408
 31
0.0
  0
LINE
  5
1465
330
1443
100
AcDbEntity
  8
01細線
100
AcDbLine
 10
12.42055956574381
 20
24.35503541179787
 30
0.0
 11
16.00000004438413
 21
24.75497850934698
 31
0.0
  0
LINE
  5
1466
330
1443
100
AcDbEntity
  8
01細線
100
AcDbLine
 10
16.80000004438409
 20
18.75000025658403
 30
0.0
 11
16.00000004438413
 21
18.75000025658403
 31
0.0
  0
LINE
  5
1467
330
1443
100
AcDbEntity
  8
01細線
100
AcDbLine
 10
15.8000000443842
 20
16.75000025658403
 30
0.0
 11
17.00000004438402
 21
16.75000025658403
 31
0.0
  0
LINE
  5
1468
330
1443
100
AcDbEntity
  8
01細線
100
AcDbLine
 10
17.00000004438402
 20
16.75000025658403
 30
0.0
 11
16.80000004438409
 21
18.75000025658403
 31
0.0
  0
LINE
  5
1469
330
1443
100
AcDbEntity
  8
01細線
100
AcDbLine
 10
16.00000004438402
 20
18.75000025658414
 30
0.0
 11
15.8000000443842
 21
16.75000025658403
 31
0.0
  0
LINE
  5
146A
330
1443
100
AcDbEntity
  8
01細線
100
AcDbLine
 10
17.20000004438407
 20
20.03081666813102
 30
0.0
 11
17.20000004438407
 21
19.21713643010434
 31
0.0
  0
LINE
  5
146B
330
1443
100
AcDbEntity
  8
01細線
100
AcDbLine
 10
15.60000004438416
 20
20.03081666813091
 30
0.0
 11
15.60000004438416
 21
19.21713643010434
 31
0.0
  0
ARC
  5
146C
330
1443
100
AcDbEntity
  8
01細線
100
AcDbCircle
 10
14.49112918487571
 20
21.7343479025102
 30
0.0
 40
3.199999999999999
100
AcDbArc
 50
327.835389584772
 51
43.81970515961284
  0
ARC
  5
146D
330
1443
100
AcDbEntity
  8
01細線
100
AcDbCircle
 10
14.49112918487571
 20
21.7343479025102
 30
0.0
 40
4.0
100
AcDbArc
 50
340.6962906721045
 51
45.73222442043419
  0
ARC
  5
146E
330
1443
100
AcDbEntity
  8
01細線
100
AcDbCircle
 10
10.90641502985295
 20
14.50052126923611
 30
0.0
 40
5.599999999999999
100
AcDbArc
 50
31.22145554113681
 51
97.76290501584435
  0
ARC
  5
146F
330
1443
100
AcDbEntity
  8
01細線
100
AcDbCircle
 10
15.08358505891533
 20
22.69867905155525
 30
0.0
 40
5.599999999999999
100
AcDbArc
 50
208.2370949841589
 51
274.7785444588644
  0
LINE
  5
1470
330
1443
100
AcDbEntity
  8
01細線
100
AcDbLine
 10
15.5500912722739
 20
17.11814395598446
 30
0.0
 11
10.15000004438411
 21
20.04920006420741
 31
0.0
  0
LINE
  5
1471
330
1443
100
AcDbEntity
  8
01細線
100
AcDbLine
 10
10.15000004438411
 20
20.04920006420741
 30
0.0
 11
15.6953682321905
 21
17.40326604372472
 31
0.0
  0
ARC
  5
1472
330
1443
100
AcDbEntity
  8
01細線
100
AcDbCircle
 10
21.89358505891528
 20
14.50052126923611
 30
0.0
 40
5.599999999999999
100
AcDbArc
 50
82.23709498415564
 51
148.7785444588631
  0
ARC
  5
1473
330
1443
100
AcDbEntity
  8
01細線
100
AcDbCircle
 10
17.71641502985289
 20
22.69867905155525
 30
0.0
 40
5.599999999999999
100
AcDbArc
 50
265.2214555411355
 51
331.762905015841
  0
LINE
  5
1474
330
1443
100
AcDbEntity
  8
01細線
100
AcDbLine
 10
17.24990881649432
 20
17.11814395598446
 30
0.0
 11
22.65000004438411
 21
20.04920006420741
 31
0.0
  0
LINE
  5
1475
330
1443
100
AcDbEntity
  8
01細線
100
AcDbLine
 10
22.65000004438411
 20
20.04920006420741
 30
0.0
 11
17.10463185657772
 21
17.40326604372472
 31
0.0
  0
ARC
  5
1476
330
1443
100
AcDbEntity
  8
00外形線
100
AcDbCircle
 10
36.10000004438416
 20
7.252369049387539
 30
0.0
 40
2.0
100
AcDbArc
 50
270.0
 51
3.54932540531843
1001
GENIUS_GENOBJ-N-FIL_13
1002
{
1000
OWNER
1000
GEN
1002
}
1001
GENIUS_GENODEF_13
1002
{
1000
HIER
1070
     0
1002
}
1002
{
1000
MANEDIT
1070
     0
1002
}
1002
{
1000
NOSEL
1070
     0
1002
}
1002
{
1000
BEHIND
1070
     0
1002
}
1002
{
1000
OTHER
1070
     0
1002
}
1002
{
1000
REACTOR
1002
}
  0
ARC
  5
1477
330
1443
100
AcDbEntity
  8
00外形線
100
AcDbCircle
 10
40.09232753411026
 20
7.500000256583973
 30
0.0
 40
2.0
100
AcDbArc
 50
90.0
 51
183.5493254053184
1001
GENIUS_GENODEF_13
1002
{
1000
HIER
1070
     0
1002
}
1002
{
1000
MANEDIT
1070
     0
1002
}
1002
{
1000
NOSEL
1070
     0
1002
}
1002
{
1000
BEHIND
1070
     0
1002
}
1002
{
1000
OTHER
1070
     0
1002
}
1002
{
1000
REACTOR
1002
}
1001
GENIUS_GENOBJ-N-FIL_13
1002
{
1000
OWNER
1000
GEN
1002
}
  0
LINE
  5
1478
330
1443
100
AcDbEntity
  8
00外形線
100
AcDbLine
 10
40.09217990005197
 20
36.50000025658403
 30
0.0
 11
56.11993047728822
 21
36.50000025658403
 31
0.0
  0
ARC
  5
1479
330
1443
100
AcDbEntity
  8
00外形線
100
AcDbCircle
 10
56.11993047728822
 20
38.50000025658403
 30
0.0
 40
2.0
100
AcDbArc
 50
270.0
 51
315.0
1001
GENIUS_GENODEF_13
1002
{
1000
HIER
1070
     0
1002
}
1002
{
1000
MANEDIT
1070
     0
1002
}
1002
{
1000
NOSEL
1070
     0
1002
}
1002
{
1000
BEHIND
1070
     0
1002
}
1002
{
1000
OTHER
1070
     0
1002
}
1002
{
1000
REACTOR
1002
}
1001
GENIUS_GENOBJ-N-FIL_13
1002
{
1000
OWNER
1000
GEN
1002
}
  0
LINE
  5
147A
330
1443
100
AcDbEntity
  8
00外形線
100
AcDbLine
 10
40.09232753411026
 20
9.50000025658403
 30
0.0
 11
56.12634171950276
 21
9.50000025658403
 31
0.0
  0
LINE
  5
147B
330
1443
100
AcDbEntity
  8
00外形線
100
AcDbLine
 10
38.09608997221801
 20
38.62500025658403
 30
0.0
 11
38.09608997221801
 21
23.00000025658403
 31
0.0
  0
LINE
  5
147C
330
1443
100
AcDbEntity
  8
00外形線
100
AcDbLine
 10
38.09608997221801
 20
7.37500025658403
 30
0.0
 11
38.09608997221801
 21
23.00000025658403
 31
0.0
  0
LINE
  5
147D
330
1443
100
AcDbEntity
  8
00外形線
100
AcDbLine
 10
8.400000044384114
 20
30.25000025658403
 30
0.0
 11
24.40000004438412
 21
30.25000025658403
 31
0.0
  0
LINE
  5
147E
330
1443
100
AcDbEntity
  8
00外形線
100
AcDbLine
 10
24.40000004438412
 20
30.25000025658403
 30
0.0
 11
24.40000004438412
 21
15.75000025658403
 31
0.0
  0
LINE
  5
147F
330
1443
100
AcDbEntity
  8
00外形線
100
AcDbLine
 10
24.40000004438412
 20
15.75000025658403
 30
0.0
 11
8.400000044384114
 21
15.75000025658403
 31
0.0
  0
LINE
  5
1480
330
1443
100
AcDbEntity
  8
00外形線
100
AcDbLine
 10
8.400000044384114
 20
15.75000025658403
 30
0.0
 11
8.400000044384114
 21
30.25000025658403
 31
0.0
  0
LINE
  5
1481
330
1443
100
AcDbEntity
  8
00外形線
100
AcDbLine
 10
60.20156322314176
 20
39.75320587769124
 30
0.0
 11
57.53414403966122
 21
37.08578669421092
 31
0.0
  0
LINE
  5
1482
330
1443
100
AcDbEntity
  8
00外形線
100
AcDbLine
 10
60.20156322314164
 20
6.253205877691357
 30
0.0
 11
57.54055528187587
 21
8.914213818957136
 31
0.0
  0
ARC
  5
1483
330
1443
100
AcDbEntity
  8
00外形線
100
AcDbCircle
 10
56.12634171950276
 20
7.50000025658403
 30
0.0
 40
2.0
100
AcDbArc
 50
45.0
 51
90.0
1001
GENIUS_GENODEF_13
1002
{
1000
HIER
1070
     0
1002
}
1002
{
1000
MANEDIT
1070
     0
1002
}
1002
{
1000
NOSEL
1070
     0
1002
}
1002
{
1000
BEHIND
1070
     0
1002
}
1002
{
1000
OTHER
1070
     0
1002
}
1002
{
1000
REACTOR
1002
}
1001
GENIUS_GENOBJ-N-FIL_13
1002
{
1000
OWNER
1000
GEN
1002
}
  0
LINE
  5
1484
330
1443
100
AcDbEntity
  8
00外形線
100
AcDbLine
 10
56.88529734201847
 20
36.65224119156142
 30
0.0
 11
56.88529734201847
 21
23.00000025658403
 31
0.0
  0
LINE
  5
1485
330
1443
100
AcDbEntity
  8
00外形線
100
AcDbLine
 10
56.88529734201847
 20
9.347759321606645
 30
0.0
 11
56.88529734201847
 21
23.00000025658403
 31
0.0
  0
ARC
  5
1486
330
1443
100
AcDbEntity
  8
00外形線
100
AcDbCircle
 10
36.10000004438416
 20
38.75000025658403
 30
0.0
 40
2.0
100
AcDbArc
 50
356.416678301528
 51
90.0
1001
GENIUS_GENOBJ-N-FIL_13
1002
{
1000
OWNER
1000
GEN
1002
}
1001
GENIUS_GENODEF_13
1002
{
1000
HIER
1070
     0
1002
}
1002
{
1000
MANEDIT
1070
     0
1002
}
1002
{
1000
NOSEL
1070
     0
1002
}
1002
{
1000
BEHIND
1070
     0
1002
}
1002
{
1000
OTHER
1070
     0
1002
}
1002
{
1000
REACTOR
1002
}
  0
ARC
  5
1487
330
1443
100
AcDbEntity
  8
00外形線
100
AcDbCircle
 10
40.09217990005197
 20
38.50000025658403
 30
0.0
 40
2.0
100
AcDbArc
 50
176.416678301528
 51
270.0
1001
GENIUS_GENODEF_13
1002
{
1000
HIER
1070
     0
1002
}
1002
{
1000
MANEDIT
1070
     0
1002
}
1002
{
1000
NOSEL
1070
     0
1002
}
1002
{
1000
BEHIND
1070
     0
1002
}
1002
{
1000
OTHER
1070
     0
1002
}
1002
{
1000
REACTOR
1002
}
1001
GENIUS_GENOBJ-N-FIL_13
1002
{
1000
OWNER
1000
GEN
1002
}
  0
LINE
  5
1488
330
1443
100
AcDbEntity
  8
00外形線
100
AcDbLine
 10
31.72106785624965
 20
40.75000025658403
 30
0.0
 11
36.10000004438416
 21
40.75000025658403
 31
0.0
  0
ARC
  5
1489
330
1443
100
AcDbEntity
  8
00外形線
100
AcDbCircle
 10
31.72106785624965
 20
42.75000025658402
 30
0.0
 40
2.0
100
AcDbArc
 50
225.0
 51
270.0
1001
GENIUS_GENOBJ-N-FIL_13
1002
{
1000
OWNER
1000
GEN
1002
}
1001
GENIUS_GENODEF_13
1002
{
1000
HIER
1070
     0
1002
}
1002
{
1000
MANEDIT
1070
     0
1002
}
1002
{
1000
NOSEL
1070
     0
1002
}
1002
{
1000
BEHIND
1070
     0
1002
}
1002
{
1000
OTHER
1070
     0
1002
}
1002
{
1000
REACTOR
1002
}
  0
LINE
  5
148A
330
1443
100
AcDbEntity
  8
00外形線
100
AcDbLine
 10
0.0000000443841373
 20
0.5000002565840305
 30
0.0
 11
0.0000000443841373
 21
2.400000256584007
 31
0.0
  0
LINE
  5
148B
330
1443
100
AcDbEntity
  8
00外形線
100
AcDbLine
 10
5.900000044384114
 20
1.00000025658403
 30
0.0
 11
25.81421360675722
 21
1.00000025658403
 31
0.0
  0
ARC
  5
148C
330
1443
100
AcDbEntity
  8
00外形線
100
AcDbCircle
 10
5.900000044384114
 20
0.5000002565840305
 30
0.0
 40
0.5
100
AcDbArc
 50
90.0
 51
180.0
  0
ARC
  5
148D
330
1443
100
AcDbEntity
  8
00外形線
100
AcDbCircle
 10
4.900000044384114
 20
0.5000002565840305
 30
0.0
 40
0.5
100
AcDbArc
 50
270.0
 51
0.0
  0
LINE
  5
148E
330
1443
100
AcDbEntity
  8
00外形線
100
AcDbLine
 10
0.0000000443841373
 20
45.50000025658403
 30
0.0
 11
0.0000000443841373
 21
43.60000025658405
 31
0.0
  0
LINE
  5
148F
330
1443
100
AcDbEntity
  8
00外形線
100
AcDbLine
 10
0.0000000443841373
 20
45.50000025658403
 30
0.0
 11
0.5000000443841373
 21
46.00000025658403
 31
0.0
  0
ARC
  5
1490
330
1443
100
AcDbEntity
  8
00外形線
100
AcDbCircle
 10
5.900000044384114
 20
45.50000025658403
 30
0.0
 40
0.5
100
AcDbArc
 50
180.0
 51
270.0
  0
ARC
  5
1491
330
1443
100
AcDbEntity
  8
00外形線
100
AcDbCircle
 10
4.900000044384114
 20
45.50000025658403
 30
0.0
 40
0.5
100
AcDbArc
 50
0.0
 51
90.0
  0
LINE
  5
1492
330
1443
100
AcDbEntity
  8
00外形線
100
AcDbLine
 10
8.400000044384114
 20
45.00000025658414
 30
0.0
 11
5.900000044384114
 21
45.00000025658403
 31
0.0
  0
ARC
  5
1493
330
1443
100
AcDbEntity
  8
00外形線
100
AcDbCircle
 10
8.400000044384114
 20
47.00000025658414
 30
0.0
 40
2.0
100
AcDbArc
 50
270.0
 51
0.0
1001
GENIUS_GENOBJ-N-FIL_13
1002
{
1000
OWNER
1000
GEN
1002
}
1001
GENIUS_GENODEF_13
1002
{
1000
HIER
1070
     0
1002
}
1002
{
1000
MANEDIT
1070
     0
1002
}
1002
{
1000
NOSEL
1070
     0
1002
}
1002
{
1000
BEHIND
1070
     0
1002
}
1002
{
1000
OTHER
1070
     0
1002
}
1002
{
1000
REACTOR
1002
}
  0
LINE
  5
1494
330
1443
100
AcDbEntity
  8
00外形線
100
AcDbLine
 10
0.5000000443841373
 20
46.00000025658403
 30
0.0
 11
4.900000044384114
 21
46.00000025658403
 31
0.0
  0
LINE
  5
1495
330
1443
100
AcDbEntity
  8
00外形線
100
AcDbLine
 10
0.5000000443841373
 20
0.0000002565840305
 30
0.0
 11
4.900000044384114
 21
0.0000002565840305
 31
0.0
  0
LINE
  5
1496
330
1443
100
AcDbEntity
  8
00外形線
100
AcDbLine
 10
0.0000000443841373
 20
0.5000002565840305
 30
0.0
 11
0.5000000443841373
 21
0.0000002565840305
 31
0.0
1001
GENIUS_GENFIL_13
1070
     0
1040
0.5
1040
0.5
1040
0.5
1040
44.99999999999348
1000
~T
  0
LINE
  5
1497
330
1443
100
AcDbEntity
  8
00外形線
100
AcDbLine
 10
28.98578648201101
 20
42.65685450607645
 30
0.0
 11
30.30685429387654
 21
41.33578669421092
 31
0.0
  0
ARC
  5
1498
330
1443
100
AcDbEntity
  8
00外形線
100
AcDbCircle
 10
30.40000004438411
 20
44.07106806844956
 30
0.0
 40
2.0
100
AcDbArc
 50
180.0
 51
225.0
1001
GENIUS_GENODEF_13
1002
{
1000
HIER
1070
     0
1002
}
1002
{
1000
MANEDIT
1070
     0
1002
}
1002
{
1000
NOSEL
1070
     0
1002
}
1002
{
1000
BEHIND
1070
     0
1002
}
1002
{
1000
OTHER
1070
     0
1002
}
1002
{
1000
REACTOR
1002
}
1001
GENIUS_GENOBJ-N-FIL_13
1002
{
1000
OWNER
1000
GEN
1002
}
  0
LINE
  5
1499
330
1443
100
AcDbEntity
  8
00外形線
100
AcDbLine
 10
10.40000004438411
 20
49.00000025658403
 30
0.0
 11
28.40000004438412
 21
49.00000025658403
 31
0.0
  0
ENDBLK
  5
149D
330
1443
100
AcDbEntity
  8
0
100
AcDbBlockEnd
  0
BLOCK
  5
159C
330
1587
100
AcDbEntity
  8
0
100
AcDbBlockBegin
  2
A$C4AD84F67
 70
     0
 10
0.0
 20
0.0
 30
0.0
  3
A$C4AD84F67
  1

  0
LINE
  5
1588
330
1587
100
AcDbEntity
  8
00外形線
100
AcDbLine
 10
2.09893581036411
 20
0.0000001960962948
 30
0.0
 11
23.9010651289432
 21
0.0000001960962948
 31
0.0
  0
LINE
  5
1589
330
1587
100
AcDbEntity
  8
00外形線
100
AcDbLine
 10
0.0000004696537701
 20
3.635462848008842
 30
0.0
 11
2.098935810364338
 21
0.0000001960963232
 31
0.0
  0
LINE
  5
158A
330
1587
100
AcDbEntity
  8
00外形線
100
AcDbLine
 10
26.00000046965377
 20
3.635462848008842
 30
0.0
 11
23.9010651289432
 21
0.0000001960963232
 31
0.0
  0
LINE
  5
158B
330
1587
100
AcDbEntity
  8
00外形線
100
AcDbLine
 10
0.0000004696537701
 20
3.635462848008842
 30
0.0
 11
0.0000004696514964
 21
50.63546284800392
 31
0.0
  0
ARC
  5
158C
330
1587
100
AcDbEntity
  8
00外形線
100
AcDbCircle
 10
44.90106512894067
 20
27.13546284800853
 30
0.0
 40
44.90106465928698
100
AcDbArc
 50
180.0
 51
197.5879537739925
  0
ARC
  5
158D
330
1587
100
AcDbEntity
  8
00外形線
100
AcDbCircle
 10
-18.90106418963316
 20
27.13546284800867
 30
0.0
 40
44.90106465928698
100
AcDbArc
 50
342.4120462260075
 51
0.0
  0
LINE
  5
158E
330
1587
100
AcDbEntity
  8
00外形線
100
AcDbLine
 10
2.098935810364338
 20
13.56773152205235
 30
0.0
 11
23.90106512894309
 21
13.56773152205224
 31
0.0
  0
ARC
  5
158F
330
1587
100
AcDbEntity
  8
00外形線
100
AcDbCircle
 10
12.01236738724108
 20
6.783865859074239
 30
0.0
 40
12.01236691758756
100
AcDbArc
 50
145.6157525319518
 51
214.3842474680423
  0
ARC
  5
1590
330
1587
100
AcDbEntity
  8
00外形線
100
AcDbCircle
 10
13.98763355206623
 20
6.783865859074239
 30
0.0
 40
12.01236691758756
100
AcDbArc
 50
325.6157525319577
 51
34.38424746804819
  0
LINE
  5
1591
330
1587
100
AcDbEntity
  8
00外形線
100
AcDbLine
 10
2.098935810364565
 20
54.27092549992071
 30
0.0
 11
23.90106512894354
 21
54.27092549992036
 31
0.0
  0
LINE
  5
1592
330
1587
100
AcDbEntity
  8
00外形線
100
AcDbLine
 10
26.00000046965377
 20
3.635462848008842
 30
0.0
 11
26.000000469654
 21
50.63546284800779
 31
0.0
  0
LINE
  5
1593
330
1587
100
AcDbEntity
  8
00外形線
100
AcDbLine
 10
0.0000004696539975
 20
50.63546284800825
 30
0.0
 11
2.098935810364679
 21
54.27092549992071
 31
0.0
  0
LINE
  5
1594
330
1587
100
AcDbEntity
  8
00外形線
100
AcDbLine
 10
26.000000469654
 20
50.63546284800779
 30
0.0
 11
23.90106512894354
 21
54.27092549992036
 31
0.0
  0
ARC
  5
1595
330
1587
100
AcDbEntity
  8
00外形線
100
AcDbCircle
 10
44.90106512894067
 20
27.13546284800785
 30
0.0
 40
44.90106465928698
100
AcDbArc
 50
162.4120462260075
 51
180.0
  0
ARC
  5
1596
330
1587
100
AcDbEntity
  8
00外形線
100
AcDbCircle
 10
-18.90106418963316
 20
27.1354628480087
 30
0.0
 40
44.90106465928698
100
AcDbArc
 50
0.0
 51
17.58795377399251
  0
LINE
  5
1597
330
1587
100
AcDbEntity
  8
00外形線
100
AcDbLine
 10
2.098935810364451
 20
40.70319417396468
 30
0.0
 11
23.9010651289432
 21
40.70319417396447
 31
0.0
  0
ARC
  5
1598
330
1587
100
AcDbEntity
  8
00外形線
100
AcDbCircle
 10
12.01236738724142
 20
47.48705983694264
 30
0.0
 40
12.01236691758756
100
AcDbArc
 50
145.6157525319518
 51
214.3842474680482
  0
ARC
  5
1599
330
1587
100
AcDbEntity
  8
00外形線
100
AcDbCircle
 10
13.98763355206645
 20
47.48705983694264
 30
0.0
 40
12.01236691758756
100
AcDbArc
 50
325.6157525319518
 51
34.38424746804232
  0
ENDBLK
  5
159D
330
1587
100
AcDbEntity
  8
0
100
AcDbBlockEnd
  0
BLOCK
  5
1652
330
163F
100
AcDbEntity
  8
0
100
AcDbBlockBegin
  2
A$C0CB4773F
 70
     0
 10
0.0
 20
0.0
 30
0.0
  3
A$C0CB4773F
  1

  0
LINE
  5
1640
330
163F
100
AcDbEntity
  8
00外形線
100
AcDbLine
 10
2.098935325870229
 20
54.27092547671333
 30
0.0
 11
23.90106464444932
 21
54.27092547671333
 31
0.0
  0
LINE
  5
1641
330
163F
100
AcDbEntity
  8
00外形線
100
AcDbLine
 10
25.99999998515978
 20
50.63546282480089
 30
0.0
 11
25.99999998515983
 21
3.635462824800924
 31
0.0
  0
LINE
  5
1642
330
163F
100
AcDbEntity
  8
00外形線
100
AcDbLine
 10
23.90106464444932
 20
0.0000001728885195
 30
0.0
 11
2.098935325870229
 21
0.0000001728885195
 31
0.0
  0
LINE
  5
1643
330
163F
100
AcDbEntity
  8
00外形線
100
AcDbLine
 10
-0.000000014840225
 20
3.635462824800995
 30
0.0
 11
-0.000000014840225
 21
50.63546282480089
 31
0.0
  0
LINE
  5
1644
330
163F
100
AcDbEntity
  8
00外形線
100
AcDbLine
 10
-0.000000014840225
 20
50.63546282480093
 30
0.0
 11
2.098935325870229
 21
54.27092547671333
 31
0.0
  0
LINE
  5
1645
330
163F
100
AcDbEntity
  8
00外形線
100
AcDbLine
 10
25.99999998515978
 20
50.63546282480093
 30
0.0
 11
23.90106464444932
 21
54.27092547671333
 31
0.0
  0
LINE
  5
1646
330
163F
100
AcDbEntity
  8
00外形線
100
AcDbLine
 10
-0.000000014840225
 20
3.635462824800924
 30
0.0
 11
2.098935325870229
 21
0.0000001728885195
 31
0.0
  0
LINE
  5
1647
330
163F
100
AcDbEntity
  8
00外形線
100
AcDbLine
 10
25.99999998515978
 20
3.635462824800924
 30
0.0
 11
23.90106464444932
 21
0.0000001728885195
 31
0.0
  0
ARC
  5
1648
330
163F
100
AcDbEntity
  8
00外形線
100
AcDbCircle
 10
44.90106464444943
 20
27.13546282480095
 30
0.0
 40
44.90106465928966
100
AcDbArc
 50
162.4120462260062
 51
197.5879537739938
  0
ARC
  5
1649
330
163F
100
AcDbEntity
  8
00外形線
100
AcDbCircle
 10
-18.90106467412988
 20
27.13546282480095
 30
0.0
 40
44.90106465928966
100
AcDbArc
 50
342.4120462260062
 51
17.58795377399378
  0
LINE
  5
164A
330
163F
100
AcDbEntity
  8
00外形線
100
AcDbLine
 10
2.098935325870229
 20
40.70319415075715
 30
0.0
 11
23.90106464444932
 21
40.70319415075715
 31
0.0
  0
LINE
  5
164B
330
163F
100
AcDbEntity
  8
00外形線
100
AcDbLine
 10
2.098935325870229
 20
13.56773149884475
 30
0.0
 11
23.90106464444932
 21
13.56773149884473
 31
0.0
  0
ARC
  5
164C
330
163F
100
AcDbEntity
  8
00外形線
100
AcDbCircle
 10
12.10713577746736
 20
47.51895789611424
 30
0.0
 40
12.10862137949127
100
AcDbArc
 50
155.9522545176288
 51
214.2555642044043
  0
ARC
  5
164D
330
163F
100
AcDbEntity
  8
00外形線
100
AcDbCircle
 10
12.10713577746736
 20
6.751967753487605
 30
0.0
 40
12.10862137949127
100
AcDbArc
 50
145.7444357955957
 51
204.0477454823705
  0
ARC
  5
164E
330
163F
100
AcDbEntity
  8
00外形線
100
AcDbCircle
 10
13.89286419285219
 20
47.51895789611421
 30
0.0
 40
12.10862137949127
100
AcDbArc
 50
325.7444357955957
 51
24.04774548237118
  0
ARC
  5
164F
330
163F
100
AcDbEntity
  8
00外形線
100
AcDbCircle
 10
13.89286419285184
 20
6.751967753487591
 30
0.0
 40
12.10862137949127
100
AcDbArc
 50
335.9522545176281
 51
34.2555642044043
  0
ENDBLK
  5
1653
330
163F
100
AcDbEntity
  8
0
100
AcDbBlockEnd
  0
BLOCK
  5
17D3
330
17BE
100
AcDbEntity
  8
0
100
AcDbBlockBegin
  2
A$C1DC04CE0
 70
     0
 10
0.0
 20
0.0
 30
0.0
  3
A$C1DC04CE0
  1

  0
LINE
  5
17BF
330
17BE
100
AcDbEntity
  8
00外形線
100
AcDbLine
 10
21.00000010787076
 20
43.49999991518842
 30
0.0
 11
21.10130268026538
 21
43.49999991518842
 31
0.0
  0
LINE
  5
17C1
330
17BE
100
AcDbEntity
  8
00外形線
100
AcDbLine
 10
21.10130268026538
 20
2.499999915188425
 30
0.0
 11
21.00000010787076
 21
2.499999915188425
 31
0.0
  0
LINE
  5
17C2
330
17BE
100
AcDbEntity
  8
00外形線
100
AcDbLine
 10
21.00000010787076
 20
45.4999999151884
 30
0.0
 11
21.00000010787076
 21
0.4999999151884254
 31
0.0
  0
LINE
  5
17C3
330
17BE
100
AcDbEntity
  8
00外形線
100
AcDbLine
 10
20.50000010787076
 20
45.99999991518839
 30
0.0
 11
1.443375780844831
 21
45.99999991518842
 31
0.0
  0
LINE
  5
17C4
330
17BE
100
AcDbEntity
  8
00外形線
100
AcDbLine
 10
0.0000001078707612
 20
43.49999991518842
 30
0.0
 11
0.0000001078707612
 21
2.499999915188396
 31
0.0
  0
LINE
  5
17C5
330
17BE
100
AcDbEntity
  8
00外形線
100
AcDbLine
 10
1.443375780844831
 20
-0.0000000848115747
 30
0.0
 11
20.50000010787076
 21
-0.0000000848115747
 31
0.0
  0
LINE
  5
17C6
330
17BE
100
AcDbEntity
  8
00外形線
100
AcDbLine
 10
0.0000001078707612
 20
43.49999991518842
 30
0.0
 11
1.443375780844831
 21
45.99999991518842
 31
0.0
  0
LINE
  5
17C7
330
17BE
100
AcDbEntity
  8
00外形線
100
AcDbLine
 10
0.0000001078707612
 20
2.499999915188425
 30
0.0
 11
1.443375780844831
 21
-0.0000000848115747
 31
0.0
  0
LINE
  5
17C8
330
17BE
100
AcDbEntity
  8
00外形線
100
AcDbLine
 10
21.00000010787076
 20
35.53935728911592
 30
0.0
 11
1.443375780844831
 21
35.53935728911592
 31
0.0
  0
LINE
  5
17C9
330
17BE
100
AcDbEntity
  8
00外形線
100
AcDbLine
 10
1.443375780844831
 20
35.53935728911592
 30
0.0
 11
1.443375780844831
 21
33.42832672249557
 31
0.0
  0
LINE
  5
17CA
330
17BE
100
AcDbEntity
  8
00外形線
100
AcDbLine
 10
1.443375780844831
 20
33.42832672249557
 30
0.0
 11
21.00000010787076
 21
33.42832672249557
 31
0.0
  0
LINE
  5
17CB
330
17BE
100
AcDbEntity
  8
00外形線
100
AcDbLine
 10
21.00000010787076
 20
12.57167310788134
 30
0.0
 11
1.443375780844831
 21
12.57167310788134
 31
0.0
  0
LINE
  5
17CC
330
17BE
100
AcDbEntity
  8
00外形線
100
AcDbLine
 10
1.443375780844831
 20
12.57167310788134
 30
0.0
 11
1.443375780844831
 21
10.46064254126099
 31
0.0
  0
LINE
  5
17CD
330
17BE
100
AcDbEntity
  8
00外形線
100
AcDbLine
 10
1.443375780844831
 20
10.46064254126099
 30
0.0
 11
21.00000010787076
 21
10.46064254126099
 31
0.0
  0
ARC
  5
17CE
330
17BE
100
AcDbEntity
  8
00外形線
100
AcDbCircle
 10
38.39379300898088
 20
22.99999991518845
 30
0.0
 40
38.39379290111012
100
AcDbArc
 50
164.2396136579273
 51
195.7603863420726
  0
ARC
  5
17CF
330
17BE
100
AcDbEntity
  8
00外形線
100
AcDbCircle
 10
10.2704900022544
 20
40.78961431938989
 30
0.0
 40
10.27049873967923
100
AcDbArc
 50
153.6471618793375
 51
210.7436519271319
  0
ARC
  5
17D0
330
17BE
100
AcDbEntity
  8
00外形線
100
AcDbCircle
 10
10.2704900022544
 20
5.210385510986952
 30
0.0
 40
10.27049873967923
100
AcDbArc
 50
149.2563480728681
 51
206.3528381206625
  0
LINE
  5
1819
330
17BE
100
AcDbEntity
  8
00外形線
100
AcDbLine
 10
20.50000010787076
 20
-0.0000000848115747
 30
0.0
 11
21.00000010787076
 21
0.4999999151884254
 31
0.0
1001
GENIUS_GENFIL_13
1070
     0
1040
0.5
1040
0.5
1040
20.0
1040
0.0
1002
{
1002
}
1001
GENIUS_GENODEF_13
1002
{
1000
HIER
1070
     0
1002
}
1002
{
1000
MANEDIT
1070
     0
1002
}
1002
{
1000
NOSEL
1070
     0
1002
}
1002
{
1000
BEHIND
1070
     0
1002
}
1002
{
1000
OTHER
1070
     0
1002
}
1002
{
1000
REACTOR
1002
}
1001
GENIUS_GENOBJ-N-CHA_13
1002
{
1000
OWNER
1000
GEN
1002
}
  0
LINE
  5
181A
330
17BE
100
AcDbEntity
  8
00外形線
100
AcDbLine
 10
20.50000010787076
 20
45.99999991518839
 30
0.0
 11
21.00000010787076
 21
45.4999999151884
 31
0.0
1001
GENIUS_GENFIL_13
1070
     0
1040
0.5
1040
0.5
1040
20.0
1040
0.0
1002
{
1002
}
1001
GENIUS_GENODEF_13
1002
{
1000
HIER
1070
     0
1002
}
1002
{
1000
MANEDIT
1070
     0
1002
}
1002
{
1000
NOSEL
1070
     0
1002
}
1002
{
1000
BEHIND
1070
     0
1002
}
1002
{
1000
OTHER
1070
     0
1002
}
1002
{
1000
REACTOR
1002
}
1001
GENIUS_GENOBJ-N-CHA_13
1002
{
1000
OWNER
1000
GEN
1002
}
  0
ENDBLK
  5
17D4
330
17BE
100
AcDbEntity
  8
0
100
AcDbBlockEnd
  0
BLOCK
  5
1936
330
192C
100
AcDbEntity
  8
0
100
AcDbBlockBegin
  2
*D32
 70
     1
 10
0.0
 20
0.0
 30
0.0
  3
*D32
  1

  0
LINE
  5
1AC3
330
192C
100
AcDbEntity
  8
05寸法線
100
AcDbLine
 10
253.4349346937268
 20
196.664476900424
 30
0.0
 11
262.4364212909104
 21
196.664476900424
 31
0.0
  0
LINE
  5
1AC4
330
192C
100
AcDbEntity
  8
05寸法線
100
AcDbLine
 10
203.1665448750247
 20
268.6644769004233
 30
0.0
 11
262.4364212909104
 21
268.6644769004233
 31
0.0
  0
LINE
  5
1AC5
330
192C
100
AcDbEntity
  8
05寸法線
100
AcDbLine
 10
261.4364212909104
 20
199.664476900424
 30
0.0
 11
261.4364212909104
 21
265.6644769004233
 31
0.0
  0
INSERT
  5
1AC6
330
192C
100
AcDbEntity
  8
05寸法線
100
AcDbBlockReference
  2
_Open30
 10
261.4364212909104
 20
196.664476900424
 30
0.0
 41
3.0
 42
3.0
 43
3.0
 50
270.0
  0
INSERT
  5
1AC7
330
192C
100
AcDbEntity
  8
05寸法線
100
AcDbBlockReference
  2
_Open30
 10
261.4364212909104
 20
268.6644769004233
 30
0.0
 41
3.0
 42
3.0
 43
3.0
 50
90.0
  0
MTEXT
  5
1AC8
330
192C
100
AcDbEntity
  8
05寸法線
 62
     2
100
AcDbMText
 10
257.6858307397292
 20
232.6644769004237
 30
0.0
 40
6.0
 41
0.0
 71
     5
 72
     1
  1
72
  7
ベン
 11
0.0000000000000001
 21
1.0
 31
0.0
 73
     1
 44
1.0
1001
ACAD
1000
MTEXTBEGIN
1070
    73
1070
     1
1070
    44
1040
1.0
1070
    74
1070
     0
1000
MTEXTEND
  0
POINT
  5
1AC9
330
192C
100
AcDbEntity
  8
Defpoints
 62
     0
100
AcDbPoint
 10
252.4349346937268
 20
196.664476900424
 30
0.0
  0
POINT
  5
1ACA
330
192C
100
AcDbEntity
  8
Defpoints
 62
     0
100
AcDbPoint
 10
202.1665448750247
 20
268.6644769004233
 30
0.0
  0
POINT
  5
1ACB
330
192C
100
AcDbEntity
  8
Defpoints
 62
     0
100
AcDbPoint
 10
261.4364212909104
 20
268.6644769004233
 30
0.0
  0
ENDBLK
  5
1937
330
192C
100
AcDbEntity
  8
0
100
AcDbBlockEnd
  0
ENDSEC
  0
SECTION
  2
ENTITIES
  0
LINE
  5
97B
330
1F
100
AcDbEntity
  8
07中心線
  6
CENTER
100
AcDbLine
 10
182.6334349607622
 20
171.6676825222022
 30
0.0
 11
182.6313095266932
 21
272.1676825215312
 31
0.0
1001
GENIUS_GENODEF_13
1002
{
1000
HIER
1070
     0
1002
}
1002
{
1000
MANEDIT
1070
     0
1002
}
1002
{
1000
NOSEL
1070
     0
1002
}
1002
{
1000
BEHIND
1070
     0
1002
}
1002
{
1000
OTHER
1070
     0
1002
}
1002
{
1000
REACTOR
1002
}
1001
GENIUS_GENOBJ-N-CEN_13
1002
{
1000
OWNER
1000
GEN
1002
}
1001
GENIUS_GENCEN_19
1002
{
1040
3.0
1002
}
  0
INSERT
  5
982
102
{ACAD_REACTORS
330
1939
102
}
330
1F
100
AcDbEntity
  8
00外形線
100
AcDbBlockReference
  2
ハンドル
 10
-27.30486145431439
 20
-38.91705428528565
 30
0.0
  0
LINE
  5
BE0
330
1F
100
AcDbEntity
  8
00外形線
100
AcDbLine
 10
163.2329061780255
 20
362.4056652342275
 30
0.0
 11
163.2329061780255
 21
347.8056652342275
 31
0.0
  0
LINE
  5
BE1
330
1F
100
AcDbEntity
  8
00外形線
100
AcDbLine
 10
163.2329061780255
 20
335.8056652342275
 30
0.0
 11
163.2329061780255
 21
321.2056652342275
 31
0.0
  0
LINE
  5
BE2
330
1F
100
AcDbEntity
  8
00外形線
100
AcDbLine
 10
194.953973989891
 20
324.0556652342275
 30
0.0
 11
199.3329061780255
 21
324.0556652342275
 31
0.0
  0
ARC
  5
BE3
330
1F
100
AcDbEntity
  8
00外形線
100
AcDbCircle
 10
194.953973989891
 20
322.0556652342275
 30
0.0
 40
2.0
100
AcDbArc
 50
90.0
 51
135.0000000000003
1001
GENIUS_GENOBJ-N-FIL_13
1002
{
1000
OWNER
1000
GEN
1002
}
1001
GENIUS_GENODEF_13
1002
{
1000
HIER
1070
     0
1002
}
1002
{
1000
MANEDIT
1070
     0
1002
}
1002
{
1000
NOSEL
1070
     0
1002
}
1002
{
1000
BEHIND
1070
     0
1002
}
1002
{
1000
OTHER
1070
     0
1002
}
1002
{
1000
REACTOR
1002
}
  0
LINE
  5
BE4
330
1F
100
AcDbEntity
  8
00外形線
100
AcDbLine
 10
190.4613333027716
 20
320.3914516718544
 30
0.0
 11
193.5397604275179
 21
323.4698787966006
 31
0.0
  0
ARC
  5
BE5
330
1F
100
AcDbEntity
  8
00外形線
100
AcDbCircle
 10
189.0471197403985
 20
321.8056652342275
 30
0.0
 40
2.0
100
AcDbArc
 50
270.0
 51
315.0
1001
GENIUS_GENODEF_13
1002
{
1000
HIER
1070
     0
1002
}
1002
{
1000
MANEDIT
1070
     0
1002
}
1002
{
1000
NOSEL
1070
     0
1002
}
1002
{
1000
BEHIND
1070
     0
1002
}
1002
{
1000
OTHER
1070
     0
1002
}
1002
{
1000
REACTOR
1002
}
1001
GENIUS_GENOBJ-N-FIL_13
1002
{
1000
OWNER
1000
GEN
1002
}
  0
LINE
  5
BE6
330
1F
100
AcDbEntity
  8
00外形線
100
AcDbLine
 10
168.6329061780254
 20
364.3056652342275
 30
0.0
 11
168.6329061780254
 21
347.8056652342275
 31
0.0
  0
LINE
  5
BE7
330
1F
100
AcDbEntity
  8
00外形線
100
AcDbLine
 10
168.6329061780254
 20
335.8056652342275
 30
0.0
 11
168.6329061780254
 21
319.3056652342275
 31
0.0
  0
LINE
  5
BE8
330
1F
100
AcDbEntity
  8
00外形線
100
AcDbLine
 10
194.1329061780255
 20
335.8056652342276
 30
0.0
 11
194.1329061780255
 21
323.8793559010673
 31
0.0
  0
LINE
  5
BE9
330
1F
100
AcDbEntity
  8
00外形線
100
AcDbLine
 10
190.6329061780254
 20
320.5630245471082
 30
0.0
 11
190.6329061780254
 21
335.8077946929946
 31
0.0
  0
LINE
  5
BEA
330
1F
100
AcDbEntity
  8
00外形線
100
AcDbLine
 10
194.1329061780254
 20
347.8056652342275
 30
0.0
 11
194.1329061780254
 21
359.7319745673877
 31
0.0
  0
ARC
  5
C0F
330
1F
100
AcDbEntity
  8
00外形線
100
AcDbCircle
 10
199.3329061780255
 20
326.058034027031
 30
0.0
 40
2.0
100
AcDbArc
 50
270.0
 51
3.549325405318481
1001
GENIUS_GENOBJ-N-FIL_13
1002
{
1000
OWNER
1000
GEN
1002
}
1001
GENIUS_GENODEF_13
1002
{
1000
HIER
1070
     0
1002
}
1002
{
1000
MANEDIT
1070
     0
1002
}
1002
{
1000
NOSEL
1070
     0
1002
}
1002
{
1000
BEHIND
1070
     0
1002
}
1002
{
1000
OTHER
1070
     0
1002
}
1002
{
1000
REACTOR
1002
}
  0
ARC
  5
C10
330
1F
100
AcDbEntity
  8
00外形線
100
AcDbCircle
 10
203.3252336677516
 20
326.3056652342275
 30
0.0
 40
2.0
100
AcDbArc
 50
90.0
 51
183.5493254053185
1001
GENIUS_GENODEF_13
1002
{
1000
HIER
1070
     0
1002
}
1002
{
1000
MANEDIT
1070
     0
1002
}
1002
{
1000
NOSEL
1070
     0
1002
}
1002
{
1000
BEHIND
1070
     0
1002
}
1002
{
1000
OTHER
1070
     0
1002
}
1002
{
1000
REACTOR
1002
}
1001
GENIUS_GENOBJ-N-FIL_13
1002
{
1000
OWNER
1000
GEN
1002
}
  0
LINE
  5
C11
330
1F
100
AcDbEntity
  8
00外形線
100
AcDbLine
 10
203.3250860336933
 20
355.3056652342275
 30
0.0
 11
219.3528366109295
 21
355.3056652342275
 31
0.0
  0
ARC
  5
C12
330
1F
100
AcDbEntity
  8
00外形線
100
AcDbCircle
 10
219.3528366109295
 20
357.3056652342275
 30
0.0
 40
2.0
100
AcDbArc
 50
270.0
 51
315.0
1001
GENIUS_GENODEF_13
1002
{
1000
HIER
1070
     0
1002
}
1002
{
1000
MANEDIT
1070
     0
1002
}
1002
{
1000
NOSEL
1070
     0
1002
}
1002
{
1000
BEHIND
1070
     0
1002
}
1002
{
1000
OTHER
1070
     0
1002
}
1002
{
1000
REACTOR
1002
}
1001
GENIUS_GENOBJ-N-FIL_13
1002
{
1000
OWNER
1000
GEN
1002
}
  0
LINE
  5
C13
330
1F
100
AcDbEntity
  8
00外形線
100
AcDbLine
 10
203.3252336677516
 20
328.3056652342275
 30
0.0
 11
219.3592478531441
 21
328.3056652342275
 31
0.0
  0
LINE
  5
C14
330
1F
100
AcDbEntity
  8
00外形線
100
AcDbLine
 10
201.3289961058593
 20
357.4306652342275
 30
0.0
 11
201.3289961058594
 21
347.8056652342275
 31
0.0
  0
LINE
  5
C15
330
1F
100
AcDbEntity
  8
00外形線
100
AcDbLine
 10
201.3289961058593
 20
326.1806652342275
 30
0.0
 11
201.3289961058594
 21
335.8056652342275
 31
0.0
  0
LINE
  5
C1A
330
1F
100
AcDbEntity
  8
00外形線
100
AcDbLine
 10
223.4344693567831
 20
358.5588708553347
 30
0.0
 11
220.7670501733026
 21
355.8914516718544
 31
0.0
  0
LINE
  5
C1B
330
1F
100
AcDbEntity
  8
00外形線
100
AcDbLine
 10
223.434469356783
 20
325.0588708553348
 30
0.0
 11
220.7734614155172
 21
327.7198787966006
 31
0.0
  0
ARC
  5
C1C
330
1F
100
AcDbEntity
  8
00外形線
100
AcDbCircle
 10
219.3592478531441
 20
326.3056652342275
 30
0.0
 40
2.0
100
AcDbArc
 50
45.0
 51
90.0
1001
GENIUS_GENODEF_13
1002
{
1000
HIER
1070
     0
1002
}
1002
{
1000
MANEDIT
1070
     0
1002
}
1002
{
1000
NOSEL
1070
     0
1002
}
1002
{
1000
BEHIND
1070
     0
1002
}
1002
{
1000
OTHER
1070
     0
1002
}
1002
{
1000
REACTOR
1002
}
1001
GENIUS_GENOBJ-N-FIL_13
1002
{
1000
OWNER
1000
GEN
1002
}
  0
LINE
  5
C1D
330
1F
100
AcDbEntity
  8
00外形線
100
AcDbLine
 10
220.1182034756598
 20
355.4579061692049
 30
0.0
 11
220.1182034756598
 21
341.8056652342275
 31
0.0
  0
LINE
  5
C1E
330
1F
100
AcDbEntity
  8
00外形線
100
AcDbLine
 10
220.1182034756598
 20
328.1534242992501
 30
0.0
 11
220.1182034756598
 21
341.8056652342275
 31
0.0
  0
ARC
  5
C1F
330
1F
100
AcDbEntity
  8
00外形線
100
AcDbCircle
 10
199.3329061780255
 20
357.5556652342275
 30
0.0
 40
2.0
100
AcDbArc
 50
356.416678301528
 51
90.0
1001
GENIUS_GENOBJ-N-FIL_13
1002
{
1000
OWNER
1000
GEN
1002
}
1001
GENIUS_GENODEF_13
1002
{
1000
HIER
1070
     0
1002
}
1002
{
1000
MANEDIT
1070
     0
1002
}
1002
{
1000
NOSEL
1070
     0
1002
}
1002
{
1000
BEHIND
1070
     0
1002
}
1002
{
1000
OTHER
1070
     0
1002
}
1002
{
1000
REACTOR
1002
}
  0
ARC
  5
C20
330
1F
100
AcDbEntity
  8
00外形線
100
AcDbCircle
 10
203.3250860336933
 20
357.3056652342275
 30
0.0
 40
2.0
100
AcDbArc
 50
176.416678301528
 51
270.0
1001
GENIUS_GENODEF_13
1002
{
1000
HIER
1070
     0
1002
}
1002
{
1000
MANEDIT
1070
     0
1002
}
1002
{
1000
NOSEL
1070
     0
1002
}
1002
{
1000
BEHIND
1070
     0
1002
}
1002
{
1000
OTHER
1070
     0
1002
}
1002
{
1000
REACTOR
1002
}
1001
GENIUS_GENOBJ-N-FIL_13
1002
{
1000
OWNER
1000
GEN
1002
}
  0
LINE
  5
C21
330
1F
100
AcDbEntity
  8
00外形線
100
AcDbLine
 10
194.953973989891
 20
359.5556652342275
 30
0.0
 11
199.3329061780255
 21
359.5556652342275
 31
0.0
  0
ARC
  5
C22
330
1F
100
AcDbEntity
  8
00外形線
100
AcDbCircle
 10
194.953973989891
 20
361.5556652342275
 30
0.0
 40
2.0
100
AcDbArc
 50
224.9999999999997
 51
270.0
1001
GENIUS_GENOBJ-N-FIL_13
1002
{
1000
OWNER
1000
GEN
1002
}
1001
GENIUS_GENODEF_13
1002
{
1000
HIER
1070
     0
1002
}
1002
{
1000
MANEDIT
1070
     0
1002
}
1002
{
1000
NOSEL
1070
     0
1002
}
1002
{
1000
BEHIND
1070
     0
1002
}
1002
{
1000
OTHER
1070
     0
1002
}
1002
{
1000
REACTOR
1002
}
  0
LINE
  5
C23
330
1F
100
AcDbEntity
  8
00外形線
100
AcDbLine
 10
163.2329061780255
 20
319.3056652342275
 30
0.0
 11
163.2329061780255
 21
321.2056652342275
 31
0.0
  0
LINE
  5
C24
330
1F
100
AcDbEntity
  8
00外形線
100
AcDbLine
 10
169.1329061780254
 20
319.8056652342275
 30
0.0
 11
189.0471197403985
 21
319.8056652342275
 31
0.0
  0
ARC
  5
C25
330
1F
100
AcDbEntity
  8
00外形線
100
AcDbCircle
 10
169.1329061780254
 20
319.3056652342275
 30
0.0
 40
0.5
100
AcDbArc
 50
90.0
 51
180.0
  0
ARC
  5
C26
330
1F
100
AcDbEntity
  8
00外形線
100
AcDbCircle
 10
168.1329061780254
 20
319.3056652342275
 30
0.0
 40
0.5
100
AcDbArc
 50
270.0
 51
0.0
  0
LINE
  5
C27
330
1F
100
AcDbEntity
  8
00外形線
100
AcDbLine
 10
163.2329061780255
 20
364.3056652342275
 30
0.0
 11
163.2329061780255
 21
362.4056652342275
 31
0.0
  0
LINE
  5
C28
330
1F
100
AcDbEntity
  8
00外形線
100
AcDbLine
 10
163.2329061780255
 20
364.3056652342275
 30
0.0
 11
163.7329061780254
 21
364.8056652342275
 31
0.0
  0
ARC
  5
C29
330
1F
100
AcDbEntity
  8
00外形線
100
AcDbCircle
 10
169.1329061780254
 20
364.3056652342275
 30
0.0
 40
0.5
100
AcDbArc
 50
180.0
 51
270.0
  0
ARC
  5
C2A
330
1F
100
AcDbEntity
  8
00外形線
100
AcDbCircle
 10
168.1329061780254
 20
364.3056652342275
 30
0.0
 40
0.5
100
AcDbArc
 50
0.0
 51
90.0
  0
LINE
  5
C2B
330
1F
100
AcDbEntity
  8
00外形線
100
AcDbLine
 10
171.6329061780254
 20
363.8056652342276
 30
0.0
 11
169.1329061780254
 21
363.8056652342275
 31
0.0
  0
LINE
  5
C2D
330
1F
100
AcDbEntity
  8
00外形線
100
AcDbLine
 10
163.7329061780254
 20
364.8056652342275
 30
0.0
 11
168.1329061780254
 21
364.8056652342275
 31
0.0
  0
LINE
  5
C2E
330
1F
100
AcDbEntity
  8
00外形線
100
AcDbLine
 10
163.7329061780254
 20
318.8056652342275
 30
0.0
 11
168.1329061780254
 21
318.8056652342275
 31
0.0
  0
LINE
  5
C2F
330
1F
100
AcDbEntity
  8
00外形線
100
AcDbLine
 10
163.2329061780255
 20
319.3056652342275
 30
0.0
 11
163.7329061780254
 21
318.8056652342275
 31
0.0
1001
GENIUS_GENFIL_13
1070
     0
1040
0.5
1040
0.5
1040
0.5
1040
44.99999999999348
1000
~T
  0
LINE
  5
C4C
330
1F
100
AcDbEntity
  8
00外形線
100
AcDbLine
 10
169.1329061780254
 20
363.8056652342275
 30
0.0
 11
189.0471197403985
 21
363.8056652342275
 31
0.0
  0
ARC
  5
C4D
330
1F
100
AcDbEntity
  8
00外形線
100
AcDbCircle
 10
189.0471197403985
 20
361.8056652342275
 30
0.0
 40
2.0
100
AcDbArc
 50
45.00000000000029
 51
90.0
1001
GENIUS_GENODEF_13
1002
{
1000
HIER
1070
     0
1002
}
1002
{
1000
MANEDIT
1070
     0
1002
}
1002
{
1000
NOSEL
1070
     0
1002
}
1002
{
1000
BEHIND
1070
     0
1002
}
1002
{
1000
OTHER
1070
     0
1002
}
1002
{
1000
REACTOR
1002
}
1001
GENIUS_GENOBJ-N-FIL_13
1002
{
1000
OWNER
1000
GEN
1002
}
  0
LINE
  5
C4E
330
1F
100
AcDbEntity
  8
00外形線
100
AcDbLine
 10
190.4613333027716
 20
363.2198787966006
 30
0.0
 11
193.5397604275179
 21
360.1414516718544
 31
0.0
  0
LINE
  5
C78
330
1F
100
AcDbEntity
  8
00外形線
100
AcDbLine
 10
190.6329061780254
 20
347.8035357754604
 30
0.0
 11
190.6329061780254
 21
358.1398343917044
 31
0.0
  0
LINE
  5
DBC
330
1F
100
AcDbEntity
  8
00外形線
100
AcDbLine
 10
249.4344694709483
 20
365.3024633169506
 30
0.0
 11
223.4344694709483
 21
365.3024633169506
 31
0.0
  0
LINE
  5
DBD
330
1F
100
AcDbEntity
  8
00外形線
100
AcDbLine
 10
223.4344694709483
 20
365.3024633169506
 30
0.0
 11
223.4344694709483
 21
318.3088671515043
 31
0.0
  0
LINE
  5
DBE
330
1F
100
AcDbEntity
  8
00外形線
100
AcDbLine
 10
223.4344694709483
 20
318.3088671515043
 30
0.0
 11
249.4344694709483
 21
318.3088671515043
 31
0.0
  0
LINE
  5
DBF
330
1F
100
AcDbEntity
  8
00外形線
100
AcDbLine
 10
249.4344694709483
 20
318.3088671515043
 30
0.0
 11
249.4344694709483
 21
365.3024633169506
 31
0.0
  0
ARC
  5
DC0
330
1F
100
AcDbEntity
  8
00外形線
100
AcDbCircle
 10
215.505265736768
 20
353.5540642755891
 30
0.0
 40
33.92920373418026
100
AcDbArc
 50
339.7411388397452
 51
20.25886116025479
  0
ARC
  5
DC1
330
1F
100
AcDbEntity
  8
00外形線
100
AcDbCircle
 10
215.505265736768
 20
330.0572661928659
 30
0.0
 40
33.92920373418029
100
AcDbArc
 50
339.7411388397452
 51
20.25886116025479
  0
ARC
  5
DC2
330
1F
100
AcDbEntity
  8
00外形線
100
AcDbCircle
 10
257.3636732051286
 20
353.5540642755891
 30
0.0
 40
33.92920373418026
100
AcDbArc
 50
159.7411388397452
 51
200.2588611602548
  0
ARC
  5
DC3
330
1F
100
AcDbEntity
  8
00外形線
100
AcDbCircle
 10
257.3636732051286
 20
330.0572661928659
 30
0.0
 40
33.92920373418029
100
AcDbArc
 50
159.7411388397452
 51
200.2588611602548
  0
LINE
  5
DC4
330
1F
100
AcDbEntity
  8
00外形線
100
AcDbLine
 10
225.533404811657
 20
341.8056652342272
 30
0.0
 11
247.3355341302398
 21
341.8056652342276
 31
0.0
  0
LINE
  5
F30
330
1F
100
AcDbEntity
  8
00外形線
100
AcDbLine
 10
163.1349346937269
 20
321.3524596131201
 30
0.0
 11
163.1349346937269
 21
319.3024596131202
 31
0.0
  0
LINE
  5
F31
330
1F
100
AcDbEntity
  8
00外形線
100
AcDbLine
 10
163.1349346937269
 20
321.3524596131201
 30
0.0
 11
163.2333715149692
 21
321.3524596131201
 31
0.0
  0
LINE
  5
F32
330
1F
100
AcDbEntity
  8
00外形線
100
AcDbLine
 10
162.6349346937269
 20
318.8024596131202
 30
0.0
 11
163.1349346937269
 21
319.3024596131202
 31
0.0
  0
LINE
  5
F33
330
1F
100
AcDbEntity
  8
00外形線
100
AcDbLine
 10
163.1349346937269
 20
362.2524596131202
 30
0.0
 11
163.1349346937269
 21
364.3024596131202
 31
0.0
  0
LINE
  5
F34
330
1F
100
AcDbEntity
  8
00外形線
100
AcDbLine
 10
159.134934693727
 20
318.8024596131202
 30
0.0
 11
159.1349346937269
 21
364.8024596131202
 31
0.0
  0
LINE
  5
F35
330
1F
100
AcDbEntity
  8
00外形線
100
AcDbLine
 10
163.1349346937269
 20
362.2524596131202
 30
0.0
 11
163.2333715149692
 21
362.2524596131202
 31
0.0
  0
LINE
  5
F36
330
1F
100
AcDbEntity
  8
00外形線
100
AcDbLine
 10
162.6349346937269
 20
364.8024596131202
 30
0.0
 11
163.1349346937269
 21
364.3024596131202
 31
0.0
  0
LINE
  5
F37
330
1F
100
AcDbEntity
  8
00外形線
100
AcDbLine
 10
162.6349346937269
 20
318.8024596131202
 30
0.0
 11
143.5765359658765
 21
318.8024596131202
 31
0.0
  0
LINE
  5
F38
330
1F
100
AcDbEntity
  8
00外形線
100
AcDbLine
 10
162.6349346937269
 20
364.8024596131202
 30
0.0
 11
143.5728344334581
 21
364.8024596131202
 31
0.0
  0
LINE
  5
F89
330
1F
100
AcDbEntity
  8
00外形線
100
AcDbLine
 10
143.5728344334581
 20
364.8024596131202
 30
0.0
 11
142.1313095266932
 21
362.3056652342276
 31
0.0
  0
LINE
  5
F8A
330
1F
100
AcDbEntity
  8
00外形線
100
AcDbLine
 10
142.1313095266932
 20
362.3056652342276
 30
0.0
 11
142.1313095266932
 21
321.3056652342274
 31
0.0
  0
LINE
  5
F8B
330
1F
100
AcDbEntity
  8
00外形線
100
AcDbLine
 10
142.1313095266932
 20
321.3056652342274
 30
0.0
 11
143.5728344334581
 21
318.8088708553348
 31
0.0
  0
LINE
  5
F92
330
1F
100
AcDbEntity
  8
00外形線
100
AcDbLine
 10
368.6142523510738
 20
223.1676825215313
 30
0.0
 11
368.6142523510738
 21
252.6676825215311
 31
0.0
  0
LINE
  5
FA1
330
1F
100
AcDbEntity
  8
00外形線
100
AcDbLine
 10
350.6142523510738
 20
254.667682521531
 30
0.0
 11
366.6142523510738
 21
254.6676825215311
 31
0.0
  0
LINE
  5
FA2
330
1F
100
AcDbEntity
  8
00外形線
100
AcDbLine
 10
348.6142523510738
 20
223.1676825215313
 30
0.0
 11
348.6142523510738
 21
252.667682521531
 31
0.0
  0
LINE
  5
FA3
330
1F
100
AcDbEntity
  8
00外形線
100
AcDbLine
 10
348.6142523510738
 20
223.1676825215313
 30
0.0
 11
357.5153279543797
 21
223.1676825215313
 31
0.0
  0
LINE
  5
FA5
330
1F
100
AcDbEntity
  8
00外形線
100
AcDbLine
 10
359.714932081377
 20
223.1676825215313
 30
0.0
 11
368.6142523510738
 21
223.1676825215313
 31
0.0
  0
LINE
  5
102B
330
1F
100
AcDbEntity
  8
07中心線
  6
CENTER
100
AcDbLine
 10
139.1313095266932
 20
341.8056652342275
 30
0.0
 11
252.4344694709483
 21
341.8056652342275
 31
0.0
1001
GENIUS_GENODEF_13
1002
{
1000
HIER
1070
     0
1002
}
1002
{
1000
MANEDIT
1070
     0
1002
}
1002
{
1000
NOSEL
1070
     0
1002
}
1002
{
1000
BEHIND
1070
     0
1002
}
1002
{
1000
OTHER
1070
     0
1002
}
1002
{
1000
REACTOR
1002
}
1001
GENIUS_GENOBJ-N-CEN_13
1002
{
1000
OWNER
1000
GEN
1002
}
1001
GENIUS_GENCEN_19
1002
{
1040
3.0
1002
}
  0
LINE
  5
102C
330
1F
100
AcDbEntity
  8
07中心線
  6
CENTER
100
AcDbLine
 10
182.6313095266932
 20
366.8056652342275
 30
0.0
 11
182.6313095266932
 21
316.8056652342275
 31
0.0
1001
GENIUS_GENOBJ-N-CEN_13
1002
{
1000
OWNER
1000
GEN
1002
}
1001
GENIUS_GENODEF_13
1002
{
1000
HIER
1070
     0
1002
}
1002
{
1000
MANEDIT
1070
     0
1002
}
1002
{
1000
NOSEL
1070
     0
1002
}
1002
{
1000
BEHIND
1070
     0
1002
}
1002
{
1000
OTHER
1070
     0
1002
}
1002
{
1000
REACTOR
1002
}
1001
GENIUS_GENCEN_19
1002
{
1040
3.0
1002
}
  0
LINE
  5
1031
330
1F
100
AcDbEntity
  8
00外形線
100
AcDbLine
 10
364.6151300178781
 20
254.6676825215311
 30
0.0
 11
364.1495696060743
 21
267.7033740520427
 31
0.0
  0
ARC
  5
1032
330
1F
100
AcDbEntity
  8
00外形線
100
AcDbCircle
 10
363.1502067517268
 20
267.6676825215306
 30
0.0
 40
1.0
100
AcDbArc
 50
2.045408488860142
 51
90.0
  0
LINE
  5
1033
330
1F
100
AcDbEntity
  8
00外形線
100
AcDbLine
 10
352.6151300178782
 20
254.667682521531
 30
0.0
 11
353.0806904296823
 21
267.7033740520431
 31
0.0
  0
ARC
  5
1034
330
1F
100
AcDbEntity
  8
00外形線
100
AcDbCircle
 10
354.0800532840303
 20
267.6676825215312
 30
0.0
 40
1.0
100
AcDbArc
 50
90.0
 51
177.9545915111398
  0
LINE
  5
1035
330
1F
100
AcDbEntity
  8
00外形線
100
AcDbLine
 10
354.0800532840303
 20
268.6676825215313
 30
0.0
 11
363.1502067517268
 21
268.6676825215307
 31
0.0
  0
ARC
  5
1055
330
1F
100
AcDbEntity
  8
00外形線
100
AcDbCircle
 10
366.6142523510738
 20
252.6676825215311
 30
0.0
 40
2.0
100
AcDbArc
 50
0.0
 51
90.0000000000001
1001
GENIUS_GENODEF_13
1002
{
1000
HIER
1070
     0
1002
}
1002
{
1000
MANEDIT
1070
     0
1002
}
1002
{
1000
NOSEL
1070
     0
1002
}
1002
{
1000
BEHIND
1070
     0
1002
}
1002
{
1000
OTHER
1070
     0
1002
}
1002
{
1000
REACTOR
1002
}
1001
GENIUS_GENOBJ-N-FIL_13
1002
{
1000
OWNER
1000
GEN
1002
}
  0
ARC
  5
1056
330
1F
100
AcDbEntity
  8
00外形線
100
AcDbCircle
 10
350.6142523510738
 20
252.667682521531
 30
0.0
 40
2.0
100
AcDbArc
 50
90.00000000000007
 51
180.0
1001
GENIUS_GENOBJ-N-FIL_13
1002
{
1000
OWNER
1000
GEN
1002
}
1001
GENIUS_GENODEF_13
1002
{
1000
HIER
1070
     0
1002
}
1002
{
1000
MANEDIT
1070
     0
1002
}
1002
{
1000
NOSEL
1070
     0
1002
}
1002
{
1000
BEHIND
1070
     0
1002
}
1002
{
1000
OTHER
1070
     0
1002
}
1002
{
1000
REACTOR
1002
}
  0
LINE
  5
10BA
330
1F
100
AcDbEntity
  8
00外形線
100
AcDbLine
 10
351.6151300178784
 20
223.1676825215313
 30
0.0
 11
351.6151300178784
 21
222.6708881426385
 31
0.0
  0
LINE
  5
10BB
330
1F
100
AcDbEntity
  8
00外形線
100
AcDbLine
 10
351.6151300178784
 20
222.6708881426385
 30
0.0
 11
349.6151300178784
 21
222.6708881426385
 31
0.0
  0
LINE
  5
10BC
330
1F
100
AcDbEntity
  8
00外形線
100
AcDbLine
 10
349.6151300178784
 20
222.6708881426385
 30
0.0
 11
349.6151300178784
 21
218.6065011162409
 31
0.0
  0
LINE
  5
10BD
330
1F
100
AcDbEntity
  8
00外形線
100
AcDbLine
 10
365.6151300178783
 20
223.1676825215313
 30
0.0
 11
365.6151300178783
 21
222.6708881426385
 31
0.0
  0
LINE
  5
10BE
330
1F
100
AcDbEntity
  8
00外形線
100
AcDbLine
 10
365.6151300178783
 20
222.6708881426385
 30
0.0
 11
367.6151300178783
 21
222.6708881426385
 31
0.0
  0
LINE
  5
10BF
330
1F
100
AcDbEntity
  8
00外形線
100
AcDbLine
 10
367.6151300178783
 20
222.6708881426385
 30
0.0
 11
367.6151300178783
 21
218.6065011162409
 31
0.0
  0
LINE
  5
10C0
330
1F
100
AcDbEntity
  8
00外形線
100
AcDbLine
 10
365.6151300178783
 20
222.6708881426385
 30
0.0
 11
360.5818090210876
 21
222.6708881426385
 31
0.0
  0
LINE
  5
10C1
330
1F
100
AcDbEntity
  8
07中心線
  6
CENTER
100
AcDbLine
 10
332.1183319351551
 20
196.6708881426385
 30
0.0
 11
385.1119281006015
 21
196.6708881426385
 31
0.0
1001
GENIUS_GENOBJ-N-CEN_13
1002
{
1000
OWNER
1000
GEN
1002
}
1001
GENIUS_GENODEF_13
1002
{
1000
HIER
1070
     0
1002
}
1002
{
1000
MANEDIT
1070
     0
1002
}
1002
{
1000
NOSEL
1070
     0
1002
}
1002
{
1000
BEHIND
1070
     0
1002
}
1002
{
1000
OTHER
1070
     0
1002
}
1002
{
1000
REACTOR
1002
}
1001
GENIUS_GENCEN_19
1002
{
1040
3.0
1002
}
  0
LINE
  5
10C2
330
1F
100
AcDbEntity
  8
07中心線
  6
CENTER
100
AcDbLine
 10
358.6151300178785
 20
271.667682521531
 30
0.0
 11
358.6151300178782
 21
166.5391227463295
 31
0.0
1001
GENIUS_GENODEF_13
1002
{
1000
HIER
1070
     0
1002
}
1002
{
1000
MANEDIT
1070
     0
1002
}
1002
{
1000
NOSEL
1070
     0
1002
}
1002
{
1000
BEHIND
1070
     0
1002
}
1002
{
1000
OTHER
1070
     0
1002
}
1002
{
1000
REACTOR
1002
}
1001
GENIUS_GENOBJ-N-CEN_13
1002
{
1000
OWNER
1000
GEN
1002
}
1001
GENIUS_GENCEN_19
1002
{
1040
3.0
1002
}
  0
DIMENSION
  5
111C
330
1F
100
AcDbEntity
  8
05寸法線
100
AcDbDimension
  2
*D26
 10
234.1320689425746
 20
143.4309625872758
 30
0.0
 11
188.1320689425746
 21
147.1830032155159
 31
0.0
 70
    32
  1
<>
 71
     5
 42
92.0
  3
ベン$0
100
AcDbAlignedDimension
 13
142.1320689425746
 23
176.164476900424
 33
0.0
 14
234.1320689425746
 24
169.5290142485116
 34
0.0
100
AcDbRotatedDimension
1001
ACAD
1000
DSTYLE
1002
{
1070
   140
1040
6.0
1070
    41
1040
3.0
1002
}
  0
INSERT
  5
149F
330
1F
100
AcDbEntity
  8
00外形線
100
AcDbBlockReference
  2
A$C7FB106B2
 10
163.2333714705851
 20
173.6644766438399
 30
0.0
  0
CIRCLE
  5
15EE
330
1F
100
AcDbEntity
  8
00外形線
100
AcDbCircle
 10
358.6151300178783
 20
196.6708881426385
 30
0.0
 40
23.5
  0
LWPOLYLINE
  5
15EF
330
1F
100
AcDbEntity
  8
00外形線
100
AcDbPolyline
 90
        6
 70
     1
 43
0.0
 10
382.1151300178783
 20
210.2386194685947
 10
358.6151300178783
 20
223.806350794551
 10
335.1151300178783
 20
210.2386194685948
 10
335.1151300178783
 20
183.1031568166823
 10
358.6151300178782
 20
169.5354254907261
 10
382.1151300178783
 20
183.1031568166823
  0
CIRCLE
  5
15F0
330
1F
100
AcDbEntity
  8
00外形線
100
AcDbCircle
 10
358.6151300178783
 20
196.6708881426385
 30
0.0
 40
19.476
  0
CIRCLE
  5
15F1
330
1F
100
AcDbEntity
  8
01細線
100
AcDbCircle
 10
358.6151300178783
 20
196.6708881426385
 30
0.0
 40
20.955
  0
LINE
  5
160C
330
1F
100
AcDbEntity
  8
00外形線
100
AcDbLine
 10
356.648451014669
 20
222.6708881426385
 30
0.0
 11
351.6151300178784
 21
222.6708881426385
 31
0.0
  0
INSERT
  5
1655
330
1F
100
AcDbEntity
  8
00外形線
100
AcDbBlockReference
  2
A$C0CB4773F
 10
223.434934708567
 20
169.5290140756231
 30
0.0
  0
LINE
  5
16BD
102
{ACAD_REACTORS
330
1939
102
}
330
1F
100
AcDbEntity
  8
07中心線
  6
CENTER
100
AcDbLine
 10
252.4349346937268
 20
196.664476900424
 30
0.0
 11
139.1333714471747
 21
196.664476900424
 31
0.0
1001
GENIUS_GENOBJ-N-CEN_13
1002
{
1000
OWNER
1000
GEN
1002
}
1001
GENIUS_GENODEF_13
1002
{
1000
HIER
1070
     0
1002
}
1002
{
1000
MANEDIT
1070
     0
1002
}
1002
{
1000
NOSEL
1070
     0
1002
}
1002
{
1000
BEHIND
1070
     0
1002
}
1002
{
1000
OTHER
1070
     0
1002
}
1002
{
1000
REACTOR
1002
}
1001
GENIUS_GENCEN_19
1002
{
1040
3.0
1002
}
  0
INSERT
  5
17D6
330
1F
100
AcDbEntity
  8
00外形線
100
AcDbBlockReference
  2
A$C1DC04CE0
 10
142.1320688347038
 20
173.6644769852356
 30
0.0
  0
LINE
  5
183E
330
1F
100
AcDbEntity
  8
00外形線
100
AcDbLine
 10
159.1349346937269
 20
343.0244693001333
 30
0.0
 11
143.5728344334581
 21
343.0244693001333
 31
0.0
  0
LINE
  5
183F
330
1F
100
AcDbEntity
  8
00外形線
100
AcDbLine
 10
143.5728344334581
 20
343.0244693001333
 30
0.0
 11
143.5728344334581
 21
340.5868611683217
 31
0.0
  0
LINE
  5
1840
330
1F
100
AcDbEntity
  8
00外形線
100
AcDbLine
 10
143.5728344334581
 20
340.5868611683217
 30
0.0
 11
159.1349346937269
 21
340.5868611683217
 31
0.0
  0
LINE
  5
1841
330
1F
100
AcDbEntity
  8
00外形線
100
AcDbLine
 10
159.134934693727
 20
322.5244693001333
 30
0.0
 11
143.5728344334581
 21
322.5244693001333
 31
0.0
  0
LINE
  5
1842
330
1F
100
AcDbEntity
  8
00外形線
100
AcDbLine
 10
143.5728344334581
 20
322.5244693001333
 30
0.0
 11
143.5728344334581
 21
321.3056652342275
 31
0.0
  0
LINE
  5
1843
330
1F
100
AcDbEntity
  8
00外形線
100
AcDbLine
 10
143.5728344334581
 20
321.3056652342275
 30
0.0
 11
159.134934693727
 21
321.3056652342275
 31
0.0
  0
LINE
  5
1844
330
1F
100
AcDbEntity
  8
00外形線
100
AcDbLine
 10
159.1349346937269
 20
361.0868611683216
 30
0.0
 11
143.5728344334581
 21
361.0868611683216
 31
0.0
  0
LINE
  5
1845
330
1F
100
AcDbEntity
  8
00外形線
100
AcDbLine
 10
143.5728344334581
 20
361.0868611683216
 30
0.0
 11
143.5728344334581
 21
362.3056652342275
 31
0.0
  0
LINE
  5
1846
330
1F
100
AcDbEntity
  8
00外形線
100
AcDbLine
 10
143.5728344334581
 20
362.3056652342275
 30
0.0
 11
159.1349346937269
 21
362.3056652342275
 31
0.0
  0
ARC
  5
1848
330
1F
100
AcDbEntity
  8
00外形線
100
AcDbCircle
 10
171.1424260409873
 20
352.0556652342274
 30
0.0
 40
29.01111651429403
100
AcDbArc
 50
161.8623345106771
 51
198.1376654893228
  0
ARC
  5
1849
330
1F
100
AcDbEntity
  8
00外形線
100
AcDbCircle
 10
171.138200927509
 20
331.5443080406299
 30
0.0
 40
29.01111651429403
100
AcDbArc
 50
161.8387299130325
 51
198.1140608916797
  0
ARC
  5
184A
330
1F
100
AcDbEntity
  8
00外形線
100
AcDbCircle
 10
171.1424260409872
 20
371.336861168322
 30
0.0
 40
29.01111651429403
100
AcDbArc
 50
194.734582191043
 51
198.1376654893264
  0
ARC
  5
184B
330
1F
100
AcDbEntity
  8
00外形線
100
AcDbCircle
 10
171.1424260409874
 20
312.2744693001333
 30
0.0
 40
29.01111651429403
100
AcDbArc
 50
161.8623345106733
 51
165.2654178089579
  0
DIMENSION
  5
192B
102
{ACAD_XDICTIONARY
360
1938
102
}
102
{ACAD_REACTORS
330
1939
102
}
330
1F
100
AcDbEntity
  8
05寸法線
100
AcDbDimension
  2
*D32
 10
261.4364212909104
 20
268.6644769004233
 30
0.0
 11
257.6858307397292
 21
232.6644769004237
 31
0.0
 70
    32
 71
     5
 42
71.99999999999931
  3
ベン$0
100
AcDbAlignedDimension
 13
252.4349346937268
 23
196.664476900424
 33
0.0
 14
202.1665448750247
 24
268.6644769004233
 34
0.0
 50
90.00000000000003
100
AcDbRotatedDimension
1001
ACAD
1000
DSTYLE
1002
{
1070
   140
1040
6.0
1070
    41
1040
3.0
1002
}
  0
ARC
  5
1AFE
330
1F
100
AcDbEntity
  8
00外形線
100
AcDbCircle
 10
182.6313095266932
 20
341.8056652342275
 30
0.0
 40
10.00000000000005
100
AcDbArc
 50
216.8698976458456
 51
323.1301023541544
  0
ARC
  5
1AFF
330
1F
100
AcDbEntity
  8
00外形線
100
AcDbCircle
 10
182.6313095266932
 20
341.8056652342275
 30
0.0
 40
10.00000000000005
100
AcDbArc
 50
36.86989764584207
 51
143.1301023541579
  0
LINE
  5
1B00
330
1F
100
AcDbEntity
  8
00外形線
100
AcDbLine
 10
202.6313095266933
 20
335.8056652342274
 30
0.0
 11
162.6313095266931
 21
335.8056652342276
 31
0.0
  0
ARC
  5
1B01
330
1F
100
AcDbEntity
  8
00外形線
100
AcDbCircle
 10
202.6313095266933
 20
346.8056652342274
 30
0.0
 40
1.0
100
AcDbArc
 50
0.0
 51
90.0
1001
GENIUS_GENOBJ-N-FIL_13
1002
{
1000
OWNER
1000
GEN
1002
}
1001
GENIUS_GENODEF_13
1002
{
1000
HIER
1070
     0
1002
}
1002
{
1000
MANEDIT
1070
     0
1002
}
1002
{
1000
NOSEL
1070
     0
1002
}
1002
{
1000
BEHIND
1070
     0
1002
}
1002
{
1000
OTHER
1070
     0
1002
}
1002
{
1000
REACTOR
1002
}
  0
LINE
  5
1B02
330
1F
100
AcDbEntity
  8
00外形線
100
AcDbLine
 10
202.6313095266933
 20
347.8056652342271
 30
0.0
 11
162.6313095266931
 21
347.8056652342275
 31
0.0
  0
ARC
  5
1B03
330
1F
100
AcDbEntity
  8
00外形線
100
AcDbCircle
 10
162.6313095266931
 20
346.8056652342275
 30
0.0
 40
1.0
100
AcDbArc
 50
90.0
 51
180.0
1001
GENIUS_GENODEF_13
1002
{
1000
HIER
1070
     0
1002
}
1002
{
1000
MANEDIT
1070
     0
1002
}
1002
{
1000
NOSEL
1070
     0
1002
}
1002
{
1000
BEHIND
1070
     0
1002
}
1002
{
1000
OTHER
1070
     0
1002
}
1002
{
1000
REACTOR
1002
}
1001
GENIUS_GENOBJ-N-FIL_13
1002
{
1000
OWNER
1000
GEN
1002
}
  0
LINE
  5
1B04
330
1F
100
AcDbEntity
  8
00外形線
100
AcDbLine
 10
203.6313095266933
 20
336.8056652342275
 30
0.0
 11
203.6313095266933
 21
346.8056652342274
 31
0.0
  0
ARC
  5
1B05
330
1F
100
AcDbEntity
  8
00外形線
100
AcDbCircle
 10
202.6313095266933
 20
336.8056652342275
 30
0.0
 40
1.0
100
AcDbArc
 50
270.0
 51
0.0
1001
GENIUS_GENODEF_13
1002
{
1000
HIER
1070
     0
1002
}
1002
{
1000
MANEDIT
1070
     0
1002
}
1002
{
1000
NOSEL
1070
     0
1002
}
1002
{
1000
BEHIND
1070
     0
1002
}
1002
{
1000
OTHER
1070
     0
1002
}
1002
{
1000
REACTOR
1002
}
1001
GENIUS_GENOBJ-N-FIL_13
1002
{
1000
OWNER
1000
GEN
1002
}
  0
LINE
  5
1B06
330
1F
100
AcDbEntity
  8
00外形線
100
AcDbLine
 10
161.6313095266931
 20
336.8056652342275
 30
0.0
 11
161.6313095266931
 21
346.8056652342275
 31
0.0
  0
ARC
  5
1B07
330
1F
100
AcDbEntity
  8
00外形線
100
AcDbCircle
 10
162.6313095266931
 20
336.8056652342275
 30
0.0
 40
1.0
100
AcDbArc
 50
180.0
 51
270.0
1001
GENIUS_GENOBJ-N-FIL_13
1002
{
1000
OWNER
1000
GEN
1002
}
1001
GENIUS_GENODEF_13
1002
{
1000
HIER
1070
     0
1002
}
1002
{
1000
MANEDIT
1070
     0
1002
}
1002
{
1000
NOSEL
1070
     0
1002
}
1002
{
1000
BEHIND
1070
     0
1002
}
1002
{
1000
OTHER
1070
     0
1002
}
1002
{
1000
REACTOR
1002
}
  0
LINE
  5
1B08
330
1F
100
AcDbEntity
  8
00外形線
100
AcDbLine
 10
177.6313095266933
 20
347.8056652342274
 30
0.0
 11
177.6313095266933
 21
335.8056652342275
 31
0.0
  0
LINE
  5
1B09
330
1F
100
AcDbEntity
  8
00外形線
100
AcDbLine
 10
187.6313095266932
 20
347.8056652342273
 30
0.0
 11
187.6313095266932
 21
335.8056652342274
 31
0.0
  0
CIRCLE
  5
1B0A
330
1F
100
AcDbEntity
  8
00外形線
100
AcDbCircle
 10
182.6313095266932
 20
341.8056652342275
 30
0.0
 40
4.356610218918774
  0
LINE
  5
1B0B
330
1F
100
AcDbEntity
  8
01細線
100
AcDbLine
 10
190.6313095266932
 20
344.8056652342275
 30
0.0
 11
194.6313095266932
 21
344.8056652342273
 31
0.0
  0
LINE
  5
1B0C
330
1F
100
AcDbEntity
  8
01細線
100
AcDbLine
 10
190.6313095266932
 20
344.8056652342275
 30
0.0
 11
192.6313095266932
 21
338.8056652342275
 31
0.0
  0
LINE
  5
1B0D
330
1F
100
AcDbEntity
  8
01細線
100
AcDbLine
 10
192.6313095266932
 20
338.8056652342275
 30
0.0
 11
194.6313095266932
 21
344.8056652342273
 31
0.0
  0
LINE
  5
1B0E
330
1F
100
AcDbEntity
  8
01細線
100
AcDbLine
 10
170.6313095266932
 20
344.8056652342275
 30
0.0
 11
174.6313095266932
 21
344.8056652342273
 31
0.0
  0
LINE
  5
1B0F
330
1F
100
AcDbEntity
  8
01細線
100
AcDbLine
 10
170.6313095266932
 20
344.8056652342275
 30
0.0
 11
172.6313095266932
 21
338.8056652342275
 31
0.0
  0
LINE
  5
1B10
330
1F
100
AcDbEntity
  8
01細線
100
AcDbLine
 10
172.6313095266932
 20
338.8056652342275
 30
0.0
 11
174.6313095266932
 21
344.8056652342273
 31
0.0
  0
MTEXT
  5
1B11
330
1F
100
AcDbEntity
  8
01細線
100
AcDbMText
 10
166.1313095266932
 20
341.8056652342275
 30
0.0
 40
5.0
 41
4.698676962185118
 71
     5
 72
     5
  1
O
  7
ベン
 73
     1
 44
1.0
1001
ACAD
1000
MTEXTBEGIN
1070
    73
1070
     1
1070
    44
1040
1.0
1070
    74
1070
     0
1000
MTEXTEND
  0
MTEXT
  5
1B12
330
1F
100
AcDbEntity
  8
01細線
100
AcDbMText
 10
199.1313095266933
 20
341.8056652342275
 30
0.0
 40
5.0
 41
4.698676962185118
 71
     5
 72
     5
  1
S
  7
ベン
 73
     1
 44
1.0
1001
ACAD
1000
MTEXTBEGIN
1070
    73
1070
     1
1070
    44
1040
1.0
1070
    74
1070
     0
1000
MTEXTEND
  0
MTEXT
  5
1B1C
330
1F
100
AcDbEntity
  8
06文字
100
AcDbMText
 10
311.8717534471441
 20
357.062425963832
 30
0.0
 40
5.0
 41
166.4694415217661
 71
     1
 72
     5
  1
型　　式：BN-30N\P製品記号：BN30N-J\P呼 び 径：25A\P縮　　尺：1/1\P材　　質：CAC / SUS (PTFE)\P接　　続：入口：JIS Rc 1、出口：JIS G 1 1/4
  7
ベン
 73
     1
 44
1.0
1001
ACAD
1000
MTEXTBEGIN
1070
    73
1070
     1
1070
    44
1040
1.0
1070
    74
1070
     0
1000
MTEXTEND
1000
ACAD_MTEXT_DEFINED_HEIGHT_BEGIN
1070
    46
1040
51.70036486986316
1000
ACAD_MTEXT_DEFINED_HEIGHT_END
  0
ENDSEC
  0
SECTION
  2
OBJECTS
  0
DICTIONARY
  5
C
330
0
100
AcDbDictionary
281
     1
  3
ACAD_BACKGROUND
350
1B1E
  3
ACAD_COLOR
350
802
  3
ACAD_GROUP
350
D
  3
ACAD_LAYOUT
350
1A
  3
ACAD_MATERIAL
350
7ED
  3
ACAD_MLINESTYLE
350
17
  3
ACAD_PLOTSETTINGS
350
19
  3
ACAD_PLOTSTYLENAME
350
E
  3
ACAD_TABLESTYLE
350
803
  3
ACAD_VISUALSTYLE
350
7F1
  3
AcDbVariableDictionary
350
187
  3
AcmDictionary
350
45
  3
AMG
350
2B
  3
AMGSNAPSETTINGS
350
CF
  3
ASE_INDEX_DICTIONARY
350
176
  3
DWGPROPS
350
1B69
  0
DICTIONARY
  5
96B
330
2
100
AcDbDictionary
280
     1
281
     1
  3
ACAD_LAYERSTATES
360
96C
  0
DICTIONARY
  5
179
330
1F
100
AcDbDictionary
280
     1
281
     1
  3
ACAD_SORTENTS
360
984
  0
DICTIONARY
  5
8BD
330
8BC
100
AcDbDictionary
280
     1
281
     1
  3
ACAD_SORTENTS
360
8BE
  0
DICTIONARY
  5
901
330
900
100
AcDbDictionary
280
     1
281
     1
  3
ACAD_SORTENTS
360
1294
  0
DICTIONARY
  5
C6F
330
C50
100
AcDbDictionary
280
     1
281
     1
  3
ACAD_SORTENTS
360
C70
  0
DICTIONARY
  5
E32
330
E26
100
AcDbDictionary
280
     1
281
     1
  3
ACAD_SORTENTS
360
E33
  0
DICTIONARY
  5
1019
330
1003
100
AcDbDictionary
280
     1
281
     1
  3
ACAD_SORTENTS
360
101A
  0
DICTIONARY
  5
1381
330
132A
100
AcDbDictionary
280
     1
281
     1
  3
ACAD_SORTENTS
360
1382
  0
DICTIONARY
  5
149A
330
1443
100
AcDbDictionary
280
     1
281
     1
  3
ACAD_SORTENTS
360
18FD
  0
DICTIONARY
  5
159A
330
1587
100
AcDbDictionary
280
     1
281
     1
  3
ACAD_SORTENTS
360
159B
  0
DICTIONARY
  5
1650
330
163F
100
AcDbDictionary
280
     1
281
     1
  3
ACAD_SORTENTS
360
1651
  0
DICTIONARY
  5
17D1
330
17BE
100
AcDbDictionary
280
     1
281
     1
  3
ACAD_SORTENTS
360
181B
  0
DICTIONARY
  5
1938
330
192B
100
AcDbDictionary
280
     1
281
     1
  3
ACAD_DIMASSOC
360
1939
  0
DICTIONARY
  5
1B1E
102
{ACAD_REACTORS
330
C
102
}
330
C
100
AcDbDictionary
281
     1
  0
DICTIONARY
  5
802
102
{ACAD_REACTORS
330
C
102
}
330
C
100
AcDbDictionary
281
     1
  0
DICTIONARY
  5
D
102
{ACAD_REACTORS
330
C
102
}
330
C
100
AcDbDictionary
281
     1
  0
DICTIONARY
  5
1A
102
{ACAD_REACTORS
330
C
102
}
330
C
100
AcDbDictionary
281
     1
  3
Model
350
22
  3
ﾚｲｱｳﾄ1
350
1E
  3
ﾚｲｱｳﾄ2
350
26
  0
DICTIONARY
  5
7ED
102
{ACAD_REACTORS
330
C
102
}
330
C
100
AcDbDictionary
281
     1
  3
ByBlock
350
7EF
  3
ByLayer
350
7EE
  3
Global
350
7F0
  0
DICTIONARY
  5
17
102
{ACAD_REACTORS
330
C
102
}
330
C
100
AcDbDictionary
281
     1
  3
Standard
350
18
  0
DICTIONARY
  5
19
102
{ACAD_REACTORS
330
C
102
}
330
C
100
AcDbDictionary
281
     1
  0
ACDBDICTIONARYWDFLT
  5
E
102
{ACAD_REACTORS
330
C
102
}
330
C
100
AcDbDictionary
281
     1
  3
Normal
350
F
100
AcDbDictionaryWithDefault
340
F
  0
DICTIONARY
  5
803
102
{ACAD_REACTORS
330
C
102
}
330
C
100
AcDbDictionary
281
     1
  3
Standard
350
804
  0
DICTIONARY
  5
7F1
102
{ACAD_REACTORS
330
C
102
}
330
C
100
AcDbDictionary
281
     1
  3
2dWireframe
350
7F7
  3
3D Hidden
350
7F9
  3
3dWireframe
350
7F8
  3
Basic
350
7F6
  3
Brighten
350
7FD
  3
ColorChange
350
801
  3
Conceptual
350
7FA
  3
Dim
350
7FC
  3
Facepattern
350
800
  3
Flat
350
7F2
  3
FlatWithEdges
350
7F3
  3
Gouraud
350
7F4
  3
GouraudWithEdges
350
7F5
  3
Linepattern
350
7FF
  3
Realistic
350
7FB
  3
Thicken
350
7FE
  3
Wireframe
350
968
  0
DICTIONARY
  5
187
102
{ACAD_REACTORS
330
C
102
}
330
C
100
AcDbDictionary
281
     1
  3
CTABLESTYLE
350
877
  3
DIMASSOC
350
18A
  3
HIDETEXT
350
189
  3
INDEXCTL
350
188
  3
SORTENTS
350
1B68
  0
DICTIONARY
  5
45
102
{ACAD_REACTORS
330
C
102
}
330
C
100
AcDbDictionary
281
     1
  3
AcmStdDictionary
350
4A
  3
AMDTSECTSYM_ARROWCOLOR
350
85C
  0
DICTIONARY
  5
2B
102
{ACAD_REACTORS
330
C
102
}
330
C
100
AcDbDictionary
281
     1
  0
DICTIONARY
  5
CF
102
{ACAD_REACTORS
330
C
102
}
330
C
100
AcDbDictionary
281
     1
  0
DICTIONARY
  5
176
102
{ACAD_REACTORS
330
C
102
}
330
C
100
AcDbDictionary
281
     1
  3
ASEBlockHierarchyIndexRecord
350
178
1001
DCO15
1040
1436777421.792
  0
XRECORD
  5
1B69
102
{ACAD_REACTORS
330
C
102
}
330
C
100
AcDbXrecord
280
     1
  1
DWGPROPS COOKIE
  2

  3

  4

  6

  7

  8
Administrator
  9

300
AmdtFileType=84
301
=
302
=
303
=
304
=
305
=
306
=
307
=
308
=
309
=
 40
0.173247962962963
 41
2459521.568762291
 42
2459753.636704815
  1

 90
        1
  0
DICTIONARY
  5
96C
102
{ACAD_REACTORS
330
96B
102
}
330
96B
100
AcDbDictionary
281
     1
  0
SORTENTSTABLE
  5
984
102
{ACAD_REACTORS
330
179
102
}
330
179
100
AcDbSortentsTable
330
1F
331
F89
  5
F89
331
1841
  5
19E8
331
1849
  5
19F0
331
FA1
  5
FA2
331
C15
  5
C2D
331
1B00
  5
1033
331
10C0
  5
1848
331
DC3
  5
E79
331
C1D
  5
C4D
331
C25
  5
CDF
331
1B08
  5
10BD
331
C2D
  5
CE6
331
F32
  5
F32
331
1B10
  5
14BD
331
C4D
  5
CEA
331
BE6
  5
C20
331
F8A
  5
F8A
331
1842
  5
19E9
331
1031
  5
1655
331
F92
  5
F92
331
184A
  5
19F1
331
DBC
  5
E4F
331
FA2
  5
FA3
331
160C
  5
1849
331
1B01
  5
1034
331
10C1
  5
184A
331
C1E
  5
C74
331
DC4
  5
E7A
331
C26
  5
CE0
331
1B09
  5
10BE
331
F33
  5
F33
331
C2E
  5
CE7
331
1B11
  5
15EF
331
C4E
  5
CEB
331
BE7
  5
C21
331
F8B
  5
F8B
331
1843
  5
19EA
331
1032
  5
16D7
331
C0F
  5
C26
331
184B
  5
19F2
331
FA3
  5
101E
331
DBD
  5
E50
331
10BA
  5
1841
331
1B02
  5
1035
331
10C2
  5
184B
331
C1F
  5
C76
331
C27
  5
CE1
331
1B0A
  5
10BF
331
192B
  5
1AFE
331
C2F
  5
CE8
331
BE0
  5
C1A
331
F34
  5
F34
331
1B12
  5
15F0
331
1655
  5
19E2
331
BE8
  5
C22
331
102B
  5
15F1
331
1844
  5
19EB
331
15EE
  5
19DD
331
16BD
  5
19E3
331
1033
  5
182C
331
C10
  5
C27
331
DBE
  5
E57
331
10BB
  5
1842
331
149F
  5
192B
331
1B03
  5
1055
331
C20
  5
C78
331
C28
  5
CE2
331
1B0B
  5
10C0
331
BE1
  5
C1B
331
F35
  5
F35
331
BE9
  5
C23
331
102C
  5
160C
331
1845
  5
19EC
331
15EF
  5
19DE
331
1034
  5
183F
331
C11
  5
C28
331
FA5
  5
1028
331
982
  5
A96
331
DBF
  5
E5B
331
10BC
  5
1843
331
1B04
  5
1056
331
C78
  5
C24
331
C21
  5
C97
331
17D6
  5
19E4
331
C29
  5
CE3
331
1B0C
  5
10C1
331
111C
  5
184C
331
BE2
  5
C1C
331
F36
  5
F36
331
183E
  5
19E5
331
BEA
  5
C25
331
1846
  5
19EE
331
15F0
  5
19DF
331
1035
  5
1840
331
97B
  5
97B
331
C12
  5
C29
331
1055
  5
FA1
331
10BD
  5
1844
331
1B05
  5
10BA
331
C1A
  5
C2E
331
DC0
  5
E76
331
C22
  5
C98
331
C2A
  5
CE4
331
1B0D
  5
10C2
331
BE3
  5
C1D
331
F37
  5
F37
331
183F
  5
19E6
331
15F1
  5
19E0
331
C13
  5
C2A
331
1056
  5
FA4
331
10BE
  5
1845
331
1AFE
  5
102D
331
1B06
  5
10BB
331
DC1
  5
E77
331
C1B
  5
C2F
331
C23
  5
C99
331
C2B
  5
CE5
331
F30
  5
F30
331
BE4
  5
C1E
331
F38
  5
F38
331
1B0E
  5
10E2
331
1840
  5
19E7
331
1848
  5
19EF
331
C14
  5
C2B
331
10BF
  5
1846
331
1AFF
  5
1031
331
1B07
  5
10BC
331
C1C
  5
C4C
331
DC2
  5
E78
331
C24
  5
C9A
331
F31
  5
F31
331
C4C
  5
CE9
331
BE5
  5
C1F
331
1B0F
  5
140F
  0
SORTENTSTABLE
  5
8BE
102
{ACAD_REACTORS
330
8BD
102
}
330
8BD
100
AcDbSortentsTable
330
8BC
  0
SORTENTSTABLE
  5
1294
102
{ACAD_REACTORS
330
901
102
}
330
901
100
AcDbSortentsTable
330
900
331
92C
  5
919
331
914
  5
959
331
930
  5
91E
331
918
  5
905
331
940
  5
92E
331
934
  5
922
331
91C
  5
908
331
904
  5
949
331
944
  5
932
331
938
  5
926
331
920
  5
90C
331
948
  5
936
331
93C
  5
92A
331
924
  5
910
331
94C
  5
93A
331
950
  5
93E
331
954
  5
942
331
958
  5
948
331
909
  5
94E
331
90D
  5
952
331
929
  5
915
331
911
  5
956
331
92D
  5
91B
331
915
  5
95A
331
931
  5
91F
331
919
  5
906
331
941
  5
92F
331
935
  5
923
331
905
  5
94A
331
91D
  5
909
331
945
  5
933
331
939
  5
927
331
921
  5
90D
331
949
  5
937
331
93D
  5
92B
331
925
  5
911
331
94D
  5
93B
331
951
  5
93F
331
955
  5
943
331
959
  5
904
331
90A
  5
94F
331
90E
  5
953
331
92A
  5
916
331
912
  5
957
331
92E
  5
91C
331
916
  5
95B
331
932
  5
920
331
942
  5
930
331
936
  5
924
331
906
  5
94B
331
91E
  5
90A
331
946
  5
934
331
93A
  5
928
331
922
  5
90E
331
94A
  5
938
331
93E
  5
92C
331
926
  5
912
331
94E
  5
93C
331
952
  5
940
331
956
  5
946
331
95A
  5
944
331
90B
  5
950
331
90F
  5
954
331
92B
  5
918
331
913
  5
958
331
92F
  5
91D
331
933
  5
921
331
91B
  5
907
331
943
  5
931
331
937
  5
925
331
907
  5
94C
331
91F
  5
90B
331
947
  5
935
331
93B
  5
929
331
923
  5
90F
331
94B
  5
939
331
93F
  5
92D
331
927
  5
913
331
94F
  5
93D
331
953
  5
941
331
957
  5
947
331
95B
  5
945
331
908
  5
94D
331
90C
  5
951
331
928
  5
914
331
910
  5
955
  0
SORTENTSTABLE
  5
C70
102
{ACAD_REACTORS
330
C6F
102
}
330
C6F
100
AcDbSortentsTable
330
C50
  0
SORTENTSTABLE
  5
E33
102
{ACAD_REACTORS
330
E32
102
}
330
E32
100
AcDbSortentsTable
330
E26
  0
SORTENTSTABLE
  5
101A
102
{ACAD_REACTORS
330
1019
102
}
330
1019
100
AcDbSortentsTable
330
1003
  0
SORTENTSTABLE
  5
1382
102
{ACAD_REACTORS
330
1381
102
}
330
1381
100
AcDbSortentsTable
330
132A
  0
SORTENTSTABLE
  5
18FD
102
{ACAD_REACTORS
330
149A
102
}
330
149A
100
AcDbSortentsTable
330
1443
  0
SORTENTSTABLE
  5
159B
102
{ACAD_REACTORS
330
159A
102
}
330
159A
100
AcDbSortentsTable
330
1587
  0
SORTENTSTABLE
  5
1651
102
{ACAD_REACTORS
330
1650
102
}
330
1650
100
AcDbSortentsTable
330
163F
  0
SORTENTSTABLE
  5
181B
102
{ACAD_REACTORS
330
17D1
102
}
330
17D1
100
AcDbSortentsTable
330
17BE
331
181A
  5
17C3
331
17CF
  5
1819
331
17CD
  5
17CF
331
17CB
  5
17CD
331
17C9
  5
17CB
331
17C7
  5
17C9
331
17C5
  5
17C7
331
17C3
  5
17C5
331
17D0
  5
181A
331
1819
  5
17C4
331
17CE
  5
17D0
331
17CC
  5
17CE
331
17CA
  5
17CC
331
17C8
  5
17CA
331
17C6
  5
17C8
331
17C4
  5
17C6
  0
DIMASSOC
  5
1939
102
{ACAD_REACTORS
330
1938
102
}
330
1938
100
AcDbDimAssoc
330
192B
 90
        3
 70
     0
 71
     0
  1
AcDbOsnapPointRef
 72
    13
331
16BD
 73
     0
 91
        0
 40
0.0
 10
0.0
 20
0.0
 30
2.000000000000000E+50
 75
     0
  1
AcDbOsnapPointRef
 72
     1
331
982
331
8F9
 73
     0
 91
        0
 40
0.0
 10
0.0
 20
0.0
 30
2.000000000000000E+50
 75
     0
  0
LAYOUT
  5
22
102
{ACAD_XDICTIONARY
360
1B6C
102
}
102
{ACAD_REACTORS
330
1A
102
}
330
1A
100
AcDbPlotSettings
  1

  2
RICOH IPSiO CX8800 RPCS
  4
A4
  6
AM_VIEW1
 40
5.873749732971191
 41
5.873747825622558
 42
5.873748779296875
 43
5.873748779296875
 44
209.9733276367187
 45
296.9259948730469
 46
-65.60095565205532
 47
36.49773900430405
 48
0.0
 49
0.0
140
0.0
141
0.0
142
1.0
143
1.618969939332736
 70
 11940
 72
     1
 73
     0
 74
     0
  7
monochrome.ctb
 75
     0
147
0.6176766941158604
148
21.01487515149725
149
1.13575146428829
100
AcDbLayout
  1
Model
 70
     1
 71
     0
 10
0.0
 20
0.0
 11
12.0
 21
9.0
 12
0.0
 22
0.0
 32
0.0
 14
0.0
 24
0.0
 34
0.0
 15
0.0
 25
0.0
 35
0.0
146
0.0
 13
0.0
 23
0.0
 33
0.0
 16
1.0
 26
0.0
 36
0.0
 17
0.0
 27
1.0
 37
0.0
 76
     0
330
1F
331
7EB
1001
ACAD_PSEXT
1000
RICOH IPSiO CX8800 RPCS
1000
RICOH IPSiO CX8800 RPCS
1000
192.168.1.150@
1000
RPCS Driver (Windows 2000/XP/Server 2003)
1070
     0
  0
LAYOUT
  5
1E
102
{ACAD_XDICTIONARY
360
1B6A
102
}
102
{ACAD_REACTORS
330
1A
102
}
330
1A
100
AcDbPlotSettings
  1

  2
D:\Program Files\MDT6\plotters\DWF ePlot (optimized for plotting).pc3
  4

  6

 40
0.0
 41
0.0
 42
0.0
 43
0.0
 44
0.0
 45
0.0
 46
0.0
 47
0.0
 48
0.0
 49
0.0
140
0.0
141
0.0
142
1.0
143
1.0
 70
   688
 72
     0
 73
     0
 74
     5
  7
monochrome.ctb
 75
    16
147
1.0
148
0.0
149
0.0
100
AcDbLayout
  1
ﾚｲｱｳﾄ1
 70
     1
 71
     1
 10
0.0
 20
0.0
 11
420.0
 21
297.0
 12
0.0
 22
0.0
 32
0.0
 14
1.000000000000000E+20
 24
1.000000000000000E+20
 34
1.000000000000000E+20
 15
-1.000000000000000E+20
 25
-1.000000000000000E+20
 35
-1.000000000000000E+20
146
0.0
 13
0.0
 23
0.0
 33
0.0
 16
1.0
 26
0.0
 36
0.0
 17
0.0
 27
1.0
 37
0.0
 76
     0
330
1B
  0
LAYOUT
  5
26
102
{ACAD_XDICTIONARY
360
1B6E
102
}
102
{ACAD_REACTORS
330
1A
102
}
330
1A
100
AcDbPlotSettings
  1

  2
D:\Program Files\MDT6\plotters\DWF ePlot (optimized for plotting).pc3
  4

  6

 40
0.0
 41
0.0
 42
0.0
 43
0.0
 44
0.0
 45
0.0
 46
0.0
 47
0.0
 48
0.0
 49
0.0
140
0.0
141
0.0
142
1.0
143
1.0
 70
   688
 72
     0
 73
     0
 74
     5
  7
monochrome.ctb
 75
    16
147
1.0
148
0.0
149
0.0
100
AcDbLayout
  1
ﾚｲｱｳﾄ2
 70
     1
 71
     2
 10
0.0
 20
0.0
 11
12.0
 21
9.0
 12
0.0
 22
0.0
 32
0.0
 14
0.0
 24
0.0
 34
0.0
 15
0.0
 25
0.0
 35
0.0
146
0.0
 13
0.0
 23
0.0
 33
0.0
 16
1.0
 26
0.0
 36
0.0
 17
0.0
 27
1.0
 37
0.0
 76
     0
330
23
  0
MATERIAL
  5
7EF
102
{ACAD_XDICTIONARY
360
1B72
102
}
102
{ACAD_REACTORS
330
7ED
102
}
330
7ED
100
AcDbMaterial
  1
ByBlock
  0
MATERIAL
  5
7EE
102
{ACAD_XDICTIONARY
360
1B70
102
}
102
{ACAD_REACTORS
330
7ED
102
}
330
7ED
100
AcDbMaterial
  1
ByLayer
  0
MATERIAL
  5
7F0
102
{ACAD_XDICTIONARY
360
1B74
102
}
102
{ACAD_REACTORS
330
7ED
102
}
330
7ED
100
AcDbMaterial
  1
Global
  0
MLINESTYLE
  5
18
102
{ACAD_REACTORS
330
17
102
}
330
17
100
AcDbMlineStyle
  2
STANDARD
 70
     0
  3

 62
   256
 51
90.0
 52
90.0
 71
     2
 49
0.5
 62
   256
  6
BYLAYER
 49
-0.5
 62
   256
  6
BYLAYER
  0
ACDBPLACEHOLDER
  5
F
102
{ACAD_REACTORS
330
E
102
}
330
E
  0
TABLESTYLE
  5
804
102
{ACAD_XDICTIONARY
360
1B76
102
}
102
{ACAD_REACTORS
330
803
102
}
330
803
100
AcDbTableStyle
  3
Standard
 70
     0
 71
     0
 40
1.5
 41
1.5
280
     0
281
     0
  7
STANDARD
140
4.5
170
     2
 62
     0
 63
     7
283
     0
274
    -2
284
     1
 64
     0
275
    -2
285
     1
 65
     0
276
    -2
286
     1
 66
     0
277
    -2
287
     1
 67
     0
278
    -2
288
     1
 68
     0
279
    -2
289
     1
 69
     0
  7
STANDARD
140
6.0
170
     5
 62
     0
 63
     7
283
     0
274
    -2
284
     1
 64
     0
275
    -2
285
     1
 65
     0
276
    -2
286
     1
 66
     0
277
    -2
287
     1
 67
     0
278
    -2
288
     1
 68
     0
279
    -2
289
     1
 69
     0
  7
STANDARD
140
4.5
170
     5
 62
     0
 63
     7
283
     0
274
    -2
284
     1
 64
     0
275
    -2
285
     1
 65
     0
276
    -2
286
     1
 66
     0
277
    -2
287
     1
 67
     0
278
    -2
288
     1
 68
     0
279
    -2
289
     1
 69
     0
  0
VISUALSTYLE
  5
7F7
102
{ACAD_REACTORS
330
7F1
102
}
330
7F1
100
AcDbVisualStyle
  2
2dWireframe
 70
     4
 71
     0
 72
     2
 73
     0
 90
        0
 40
-0.6
 41
-30.0
 62
     5
 63
     7
 74
     1
 91
        4
 64
     7
 65
   257
 75
     1
175
     1
 42
1.0
 92
        0
 66
   257
 43
1.0
 76
     1
 77
     6
 78
     2
 67
     7
 79
     5
170
     0
171
     0
290
     0
174
     0
 93
        1
 44
0.0
173
     0
291
     0
 45
0.0
1001
ACAD
1000
AcDbSavedByObjectVersion
1070
     0
  0
VISUALSTYLE
  5
7F9
102
{ACAD_REACTORS
330
7F1
102
}
330
7F1
100
AcDbVisualStyle
  2
3D Hidden
 70
     6
 71
     1
 72
     2
 73
     2
 90
        0
 40
-0.6
 41
-30.0
 62
     5
 63
     7
 74
     2
 91
        2
 64
     7
 65
   257
 75
     2
175
     1
 42
40.0
 92
        0
 66
   257
 43
1.0
 76
     1
 77
     6
 78
     2
 67
     7
 79
     3
170
     0
171
     0
290
     0
174
     0
 93
        1
 44
0.0
173
     0
291
     0
 45
0.0
1001
ACAD
1000
AcDbSavedByObjectVersion
1070
     0
  0
VISUALSTYLE
  5
7F8
102
{ACAD_REACTORS
330
7F1
102
}
330
7F1
100
AcDbVisualStyle
  2
3dWireframe
 70
     5
 71
     0
 72
     2
 73
     0
 90
        0
 40
-0.6
 41
-30.0
 62
     5
 63
     7
 74
     1
 91
        4
 64
     7
 65
   257
 75
     1
175
     1
 42
1.0
 92
        0
 66
   257
 43
1.0
 76
     1
 77
     6
 78
     2
 67
     7
 79
     5
170
     0
171
     0
290
     0
174
     0
 93
        1
 44
0.0
173
     0
291
     0
 45
0.0
1001
ACAD
1000
AcDbSavedByObjectVersion
1070
     0
  0
VISUALSTYLE
  5
7F6
102
{ACAD_REACTORS
330
7F1
102
}
330
7F1
100
AcDbVisualStyle
  2
Basic
 70
     7
 71
     1
 72
     0
 73
     1
 90
        0
 40
-0.6
 41
-30.0
 62
     5
 63
     7
 74
     0
 91
        4
 64
     7
 65
   257
 75
     1
175
     1
 42
1.0
 92
        8
 66
     7
 43
1.0
 76
     1
 77
     6
 78
     2
 67
     7
 79
     5
170
     0
171
     0
290
     0
174
     0
 93
        1
 44
0.0
173
     0
291
     1
 45
0.0
1001
ACAD
1000
AcDbSavedByObjectVersion
1070
     0
  0
VISUALSTYLE
  5
7FD
102
{ACAD_REACTORS
330
7F1
102
}
330
7F1
100
AcDbVisualStyle
  2
Brighten
 70
    12
 71
     2
 72
     2
 73
     0
 90
        0
 40
-0.6
 41
-30.0
 62
     5
 63
     7
 74
     1
 91
        4
 64
     7
 65
   257
 75
     1
175
     1
 42
1.0
 92
        8
 66
     7
 43
1.0
 76
     1
 77
     6
 78
     2
 67
     7
 79
     5
170
     0
171
     0
290
     0
174
     0
 93
        1
 44
50.0
173
     0
291
     1
 45
0.0
1001
ACAD
1000
AcDbSavedByObjectVersion
1070
     0
  0
VISUALSTYLE
  5
801
102
{ACAD_REACTORS
330
7F1
102
}
330
7F1
100
AcDbVisualStyle
  2
ColorChange
 70
    16
 71
     2
 72
     2
 73
     3
 90
        0
 40
-0.6
 41
-30.0
 62
     5
 63
     8
 74
     1
 91
        4
 64
     7
 65
   257
 75
     1
175
     1
 42
1.0
 92
        8
 66
     8
 43
1.0
 76
     1
 77
     6
 78
     2
 67
     7
 79
     5
170
     0
171
     0
290
     0
174
     0
 93
        1
 44
0.0
173
     0
291
     1
 45
0.0
1001
ACAD
1000
AcDbSavedByObjectVersion
1070
     0
  0
VISUALSTYLE
  5
7FA
102
{ACAD_REACTORS
330
7F1
102
}
330
7F1
100
AcDbVisualStyle
  2
Conceptual
 70
     9
 71
     3
 72
     2
 73
     0
 90
        0
 40
-0.6
 41
-30.0
 62
     5
 63
     7
 74
     2
 91
        2
 64
     7
 65
   257
 75
     1
175
     1
 42
40.0
 92
        8
 66
     7
 43
1.0
 76
     1
 77
     6
 78
     2
 67
     7
 79
     3
170
     0
171
     0
290
     0
174
     0
 93
        1
 44
0.0
173
     0
291
     0
 45
0.0
1001
ACAD
1000
AcDbSavedByObjectVersion
1070
     0
  0
VISUALSTYLE
  5
7FC
102
{ACAD_REACTORS
330
7F1
102
}
330
7F1
100
AcDbVisualStyle
  2
Dim
 70
    11
 71
     2
 72
     2
 73
     0
 90
        0
 40
-0.6
 41
-30.0
 62
     5
 63
     7
 74
     1
 91
        4
 64
     7
 65
   257
 75
     1
175
     1
 42
1.0
 92
        8
 66
     7
 43
1.0
 76
     1
 77
     6
 78
     2
 67
     7
 79
     5
170
     0
171
     0
290
     0
174
     0
 93
        1
 44
-50.0
173
     0
291
     1
 45
0.0
1001
ACAD
1000
AcDbSavedByObjectVersion
1070
     0
  0
VISUALSTYLE
  5
800
102
{ACAD_REACTORS
330
7F1
102
}
330
7F1
100
AcDbVisualStyle
  2
Facepattern
 70
    15
 71
     2
 72
     2
 73
     0
 90
        0
 40
-0.6
 41
-30.0
 62
     5
 63
     7
 74
     1
 91
        4
 64
     7
 65
   257
 75
     1
175
     1
 42
1.0
 92
        8
 66
     7
 43
1.0
 76
     1
 77
     6
 78
     2
 67
     7
 79
     5
170
     0
171
     0
290
     0
174
     0
 93
        1
 44
0.0
173
     0
291
     1
 45
0.0
1001
ACAD
1000
AcDbSavedByObjectVersion
1070
     0
  0
VISUALSTYLE
  5
7F2
102
{ACAD_REACTORS
330
7F1
102
}
330
7F1
100
AcDbVisualStyle
  2
Flat
 70
     0
 71
     2
 72
     1
 73
     1
 90
        2
 40
-0.6
 41
30.0
 62
     5
 63
     7
 74
     0
 91
        4
 64
     7
 65
   257
 75
     1
175
     1
 42
1.0
 92
        8
 66
     7
 43
1.0
 76
     1
 77
     6
 78
     2
 67
     7
 79
     5
170
     0
171
     0
290
     0
174
     0
 93
       13
 44
0.0
173
     0
291
     1
 45
0.0
1001
ACAD
1000
AcDbSavedByObjectVersion
1070
     0
  0
VISUALSTYLE
  5
7F3
102
{ACAD_REACTORS
330
7F1
102
}
330
7F1
100
AcDbVisualStyle
  2
FlatWithEdges
 70
     1
 71
     2
 72
     1
 73
     1
 90
        2
 40
-0.6
 41
30.0
 62
     5
 63
     7
 74
     1
 91
        4
 64
     7
 65
   257
 75
     1
175
     1
 42
1.0
 92
        0
 66
   257
 43
1.0
 76
     1
 77
     6
 78
     2
 67
     7
 79
     5
170
     0
171
     0
290
     0
174
     0
 93
       13
 44
0.0
173
     0
291
     1
 45
0.0
1001
ACAD
1000
AcDbSavedByObjectVersion
1070
     0
  0
VISUALSTYLE
  5
7F4
102
{ACAD_REACTORS
330
7F1
102
}
330
7F1
100
AcDbVisualStyle
  2
Gouraud
 70
     2
 71
     2
 72
     2
 73
     1
 90
        2
 40
-0.6
 41
30.0
 62
     5
 63
     7
 74
     0
 91
        4
 64
     7
 65
   257
 75
     1
175
     1
 42
1.0
 92
        0
 66
     7
 43
1.0
 76
     1
 77
     6
 78
     2
 67
     7
 79
     5
170
     0
171
     0
290
     0
174
     0
 93
       13
 44
0.0
173
     0
291
     1
 45
0.0
1001
ACAD
1000
AcDbSavedByObjectVersion
1070
     0
  0
VISUALSTYLE
  5
7F5
102
{ACAD_REACTORS
330
7F1
102
}
330
7F1
100
AcDbVisualStyle
  2
GouraudWithEdges
 70
     3
 71
     2
 72
     2
 73
     1
 90
        2
 40
-0.6
 41
30.0
 62
     5
 63
     7
 74
     1
 91
        4
 64
     7
 65
   257
 75
     1
175
     1
 42
1.0
 92
        0
 66
   257
 43
1.0
 76
     1
 77
     6
 78
     2
 67
     7
 79
     5
170
     0
171
     0
290
     0
174
     0
 93
       13
 44
0.0
173
     0
291
     1
 45
0.0
1001
ACAD
1000
AcDbSavedByObjectVersion
1070
     0
  0
VISUALSTYLE
  5
7FF
102
{ACAD_REACTORS
330
7F1
102
}
330
7F1
100
AcDbVisualStyle
  2
Linepattern
 70
    14
 71
     2
 72
     2
 73
     0
 90
        0
 40
-0.6
 41
-30.0
 62
     5
 63
     7
 74
     1
 91
        4
 64
     7
 65
   257
 75
     7
175
     7
 42
1.0
 92
        8
 66
     7
 43
1.0
 76
     1
 77
     6
 78
     2
 67
     7
 79
     5
170
     0
171
     0
290
     0
174
     0
 93
        1
 44
0.0
173
     0
291
     1
 45
0.0
1001
ACAD
1000
AcDbSavedByObjectVersion
1070
     0
  0
VISUALSTYLE
  5
7FB
102
{ACAD_REACTORS
330
7F1
102
}
330
7F1
100
AcDbVisualStyle
  2
Realistic
 70
     8
 71
     2
 72
     2
 73
     0
 90
        0
 40
-0.6
 41
-30.0
 62
     5
 63
     7
 74
     1
 91
        0
 64
     7
 65
   257
 75
     1
175
     1
 42
1.0
 92
        8
 66
     8
 43
1.0
 76
     1
 77
     6
 78
     2
 67
     7
 79
     5
170
     0
171
     0
290
     0
174
     0
 93
       13
 44
0.0
173
     0
291
     0
 45
0.0
1001
ACAD
1000
AcDbSavedByObjectVersion
1070
     0
  0
VISUALSTYLE
  5
7FE
102
{ACAD_REACTORS
330
7F1
102
}
330
7F1
100
AcDbVisualStyle
  2
Thicken
 70
    13
 71
     2
 72
     2
 73
     0
 90
        0
 40
-0.6
 41
-30.0
 62
     5
 63
     7
 74
     1
 91
        4
 64
     7
 65
   257
 75
     1
175
     1
 42
1.0
 92
       12
 66
     7
 43
1.0
 76
     1
 77
     6
 78
     2
 67
     7
 79
     5
170
     0
171
     0
290
     0
174
     0
 93
        1
 44
0.0
173
     0
291
     1
 45
0.0
1001
ACAD
1000
AcDbSavedByObjectVersion
1070
     0
  0
VISUALSTYLE
  5
968
102
{ACAD_XDICTIONARY
360
969
102
}
102
{ACAD_REACTORS
330
7F1
102
}
330
7F1
100
AcDbVisualStyle
  2
Wireframe
 70
     5
 71
     0
 72
     2
 73
     0
 90
        0
 40
-0.6
 41
-30.0
 62
     5
 63
     7
 74
     1
 91
        4
 64
     7
 65
   257
 75
     1
175
     1
 42
1.0
 92
        0
 66
   257
 43
1.0
 76
     1
 77
     6
 78
     2
 67
     7
 79
     3
170
     0
171
     0
290
     0
174
     0
 93
        1
 44
0.0
173
     0
291
     0
 45
0.0
1001
ACAD
1000
AcDbSavedByObjectVersion
1070
     0
  0
DICTIONARYVAR
  5
877
102
{ACAD_REACTORS
330
187
102
}
330
187
100
DictionaryVariables
280
     0
  1
STANDARD
  0
DICTIONARYVAR
  5
18A
102
{ACAD_REACTORS
330
187
102
}
330
187
100
DictionaryVariables
280
     0
  1
2
  0
DICTIONARYVAR
  5
189
102
{ACAD_REACTORS
330
187
102
}
330
187
100
DictionaryVariables
280
     0
  1
1
  0
DICTIONARYVAR
  5
188
102
{ACAD_REACTORS
330
187
102
}
330
187
100
DictionaryVariables
280
     0
  1
0
  0
DICTIONARYVAR
  5
1B68
102
{ACAD_REACTORS
330
187
102
}
330
187
100
DictionaryVariables
280
     0
  1
127
  0
DICTIONARY
  5
4A
102
{ACAD_REACTORS
330
45
102
}
330
45
100
AcDbDictionary
281
     1
  0
XRECORD
  5
85C
102
{ACAD_REACTORS
330
45
102
}
330
45
100
AcDbXrecord
280
     1
 90
-1023410169
  0
XRECORD
  5
178
102
{ACAD_REACTORS
330
176
102
}
330
176
100
AcDbXrecord
280
     1
330
0
330
0
330
0
330
0
  0
DICTIONARY
  5
1B6C
330
22
100
AcDbDictionary
280
     1
281
     1
  3
ACAD_XREC_ROUNDTRIP
360
1B6D
  0
DICTIONARY
  5
1B6A
330
1E
100
AcDbDictionary
280
     1
281
     1
  3
ACAD_XREC_ROUNDTRIP
360
1B6B
  0
DICTIONARY
  5
1B6E
330
26
100
AcDbDictionary
280
     1
281
     1
  3
ACAD_XREC_ROUNDTRIP
360
1B6F
  0
DICTIONARY
  5
1B72
330
7EF
100
AcDbDictionary
280
     1
281
     1
  3
ACAD_XREC_ROUNDTRIP
360
1B73
  0
DICTIONARY
  5
1B70
330
7EE
100
AcDbDictionary
280
     1
281
     1
  3
ACAD_XREC_ROUNDTRIP
360
1B71
  0
DICTIONARY
  5
1B74
330
7F0
100
AcDbDictionary
280
     1
281
     1
  3
ACAD_XREC_ROUNDTRIP
360
1B75
  0
DICTIONARY
  5
1B76
330
804
100
AcDbDictionary
280
     1
281
     1
  3
ACAD_XREC_ROUNDTRIP
360
1B77
  0
DICTIONARY
  5
969
330
968
100
AcDbDictionary
280
     1
281
     1
  3
ACAD_XREC_ROUNDTRIP
360
96A
  0
XRECORD
  5
1B6D
102
{ACAD_REACTORS
330
1B6C
102
}
330
1B6C
100
AcDbXrecord
280
     1
102
SHADEPLOT
 70
     0
102
SHADEPLOTRESLEVEL
 70
     2
102
SHADEPLOTCUSTOMDPI
 70
   300
  0
XRECORD
  5
1B6B
102
{ACAD_REACTORS
330
1B6A
102
}
330
1B6A
100
AcDbXrecord
280
     1
102
SHADEPLOT
 70
     0
102
SHADEPLOTRESLEVEL
 70
     2
102
SHADEPLOTCUSTOMDPI
 70
   300
  0
XRECORD
  5
1B6F
102
{ACAD_REACTORS
330
1B6E
102
}
330
1B6E
100
AcDbXrecord
280
     1
102
SHADEPLOT
 70
     0
102
SHADEPLOTRESLEVEL
 70
     2
102
SHADEPLOTCUSTOMDPI
 70
   300
  0
XRECORD
  5
1B73
102
{ACAD_REACTORS
330
1B72
102
}
330
1B72
100
AcDbXrecord
280
     1
102
MATERIAL
148
0.0
149
0.0
149
0.0
 93
        0
 94
       63
282
     0
 72
     1
 77
     1
171
     1
175
     1
179
     1
273
     0
  0
XRECORD
  5
1B71
102
{ACAD_REACTORS
330
1B70
102
}
330
1B70
100
AcDbXrecord
280
     1
102
MATERIAL
148
0.0
149
0.0
149
0.0
 93
        0
 94
       63
282
     0
 72
     1
 77
     1
171
     1
175
     1
179
     1
273
     0
  0
XRECORD
  5
1B75
102
{ACAD_REACTORS
330
1B74
102
}
330
1B74
100
AcDbXrecord
280
     1
102
MATERIAL
148
0.0
149
0.0
149
0.0
 93
        0
 94
       63
282
     0
 72
     1
 77
     1
171
     1
175
     1
179
     1
273
     0
  0
XRECORD
  5
1B77
102
{ACAD_REACTORS
330
1B76
102
}
330
1B76
100
AcDbXrecord
280
     1
102
ACAD_ROUNDTRIP_PRE2007_TABLESTYLE
 90
      512
 91
        0
  1

 92
      512
 93
        0
  2

 94
      512
 95
        0
  3

  0
XRECORD
  5
96A
102
{ACAD_REACTORS
330
969
102
}
330
969
100
AcDbXrecord
280
     1
102
RTVSPost2010Prop28
280
     0
102
RTVSPost2010PropOp28
 70
     1
102
RTVSPost2010Prop29
280
     1
102
RTVSPost2010PropOp29
 70
     1
102
RTVSPost2010Prop30
280
     1
102
RTVSPost2010PropOp30
 70
     1
102
RTVSPost2010Prop31
280
     0
102
RTVSPost2010PropOp31
 70
     1
102
RTVSPost2010Prop32
280
     0
102
RTVSPost2010PropOp32
 70
     1
102
RTVSPost2010Prop33
280
     0
102
RTVSPost2010PropOp33
 70
     1
102
RTVSPost2010Prop34
280
     0
102
RTVSPost2010PropOp34
 70
     1
102
RTVSPost2010Prop35
280
     0
102
RTVSPost2010PropOp35
 70
     1
102
RTVSPost2010Prop36
280
     0
102
RTVSPost2010PropOp36
 70
     1
102
RTVSPost2010Prop37
 90
       50
102
RTVSPost2010PropOp37
 70
     1
102
RTVSPost2010Prop38
140
0.0
102
RTVSPost2010PropOp38
 70
     1
102
RTVSPost2010Prop39
140
1.0
102
RTVSPost2010PropOp39
 70
     1
102
RTVSPost2010Prop40
 90
        0
102
RTVSPost2010PropOp40
 70
     1
102
RTVSPost2010Prop41ColorIndex
 90
       18
102
RTVSPost2010Prop41ColorRGB
 90
        0
102
RTVSPost2010PropOp41
 70
     1
102
RTVSPost2010Prop42
 90
       50
102
RTVSPost2010PropOp42
 70
     1
102
RTVSPost2010Prop43
 90
        3
102
RTVSPost2010PropOp43
 70
     1
102
RTVSPost2010Prop44ColorIndex
 90
        5
102
RTVSPost2010Prop44ColorRGB
 90
      255
102
RTVSPost2010PropOp44
 70
     1
102
RTVSPost2010Prop45
280
     0
102
RTVSPost2010PropOp45
 70
     1
102
RTVSPost2010Prop46
 90
       50
102
RTVSPost2010PropOp46
 70
     1
102
RTVSPost2010Prop47
 90
       50
102
RTVSPost2010PropOp47
 70
     1
102
RTVSPost2010Prop48
 90
       50
102
RTVSPost2010PropOp48
 70
     1
102
RTVSPost2010Prop49
280
     0
102
RTVSPost2010PropOp49
 70
     1
102
RTVSPost2010Prop50
 90
       50
102
RTVSPost2010PropOp50
 70
     1
102
RTVSPost2010Prop51ColorIndex
 90
      256
102
RTVSPost2010Prop51ColorRGB
 90
-16777216
102
RTVSPost2010PropOp51
 70
     0
102
RTVSPost2010Prop52
140
1.0
102
RTVSPost2010PropOp52
 70
     0
102
RTVSPost2010Prop53
 90
        2
102
RTVSPost2010PropOp53
 70
     1
102
RTVSPost2010Prop54
  1
strokes_ogs.tif
102
RTVSPost2010PropOp54
 70
     1
102
RTVSPost2010Prop55
280
     0
102
RTVSPost2010PropOp55
 70
     1
102
RTVSPost2010Prop56
140
1.0
102
RTVSPost2010PropOp56
 70
     1
102
RTVSPost2010Prop57
140
1.0
102
RTVSPost2010PropOp57
 70
     1
102
RTVSPropertyOp0
 70
     1
102
RTVSPropertyOp1
 70
     1
102
RTVSPropertyOp2
 70
     1
102
RTVSPropertyOp3
 70
     1
102
RTVSPropertyOp4
 70
     1
102
RTVSPropertyOp5
 70
     1
102
RTVSPropertyOp6
 70
     1
102
RTVSPropertyOp7
 70
     1
102
RTVSPropertyOp8
 70
     1
102
RTVSPropertyOp9
 70
     1
102
RTVSPropertyOp10
 70
     1
102
RTVSPropertyOp11
 70
     1
102
RTVSPropertyOp12
 70
     1
102
RTVSPropertyOp13
 70
     1
102
RTVSPropertyOp14
 70
     1
102
RTVSPropertyOp15
 70
     1
102
RTVSPropertyOp16
 70
     1
102
RTVSPropertyOp17
 70
     1
102
RTVSPropertyOp18
 70
     1
102
RTVSPropertyOp19
 70
     1
102
RTVSPropertyOp20
 70
     1
102
RTVSPropertyOp21
 70
     1
102
RTVSPropertyOp22
 70
     1
102
RTVSPropertyOp23
 70
     1
102
RTVSPropertyOp24
 70
     1
102
RTVSPropertyOp25
 70
     1
102
RTVSPropertyOp26
 70
     1
102
RTVSPropertyOp27
 70
     1
102
RTVSPropertyOp28
 70
     1
102
RTVSPropertyOp29
 70
     1
102
RTVSPropertyOp30
 70
     1
102
RTVSPropertyOp31
 70
     1
102
RTVSPropertyOp32
 70
     1
102
RTVSPropertyOp33
 70
     1
102
RTVSPropertyOp34
 70
     1
102
RTVSPropertyOp35
 70
     1
102
RTVSPropertyOp36
 70
     1
102
RTVSPropertyOp37
 70
     1
102
RTVSPropertyOp38
 70
     1
102
RTVSPropertyOp39
 70
     1
102
RTVSPropertyOp40
 70
     1
102
RTVSPropertyOp41
 70
     1
102
RTVSPropertyOp42
 70
     1
102
RTVSPropertyOp43
 70
     1
102
RTVSPropertyOp44
 70
     1
102
RTVSPropertyOp45
 70
     1
102
RTVSPropertyOp46
 70
     1
102
RTVSPropertyOp47
 70
     1
102
RTVSPropertyOp48
 70
     1
102
RTVSPropertyOp49
 70
     1
102
RTVSPropertyOp50
 70
     1
102
RTVSPropertyOp51
 70
     0
102
RTVSPropertyOp52
 70
     0
102
RTVSPropertyOp53
 70
     1
102
RTVSPropertyOp54
 70
     1
102
RTVSPropertyOp55
 70
     1
102
RTVSPropertyOp56
 70
     1
102
RTVSPropertyOp57
 70
     1
102
RTVSPropertyOp58
 70
     1
102
RTVSPropertyOp59
 70
     1
102
RTVSPropertyOp60
 70
     1
102
RTVSPropertyOp61
 70
     1
102
RTVSPropertyOp62
 70
     1
  0
ENDSEC
  0
EOF
